Pokaż wyniki od 1 do 4 z 4

Wątek: Qlimax (2008 - 2013) Bluray Untouched

  
  1. #1
    Użytkownik Array
    Dołączył
    Jun 2015
    Posty
    730
    Podziękował/a
    0
    Otrzymał/a podziękowań 12
    Siła reputacji
    78

    Thumbs up Qlimax (2008 - 2013) Bluray Untouched

    Qlimax (2008 - 2013) Kolekcja Bluray Untouched 1080 AVC



    Genre: Music Video, Hardstyle

    Qlimax & event organizacji Q-dance, podczas którego grany jest głównie Hardstyle. Zwykle ma on miejsce w hali Gelredome (Arnhem, w Holandii). W 2006 i 2007 roku odbył się także w Belgii.

    To jedno z największych wydarze? na tle muzyki elektronicznej, a dokładniej jej mocniejszych gatunków jak właśnie hardstyle. Coroczna impreza Qlimax jest największą tego typu w Europie. Słynie z bardzo nowoczesnych efektów świetlnych, pokazów laserów oraz efektów pirotechnicznych. Na masywnych ścianach i filarach Gelredome organizatorzy rozmieszczają mnóstwo konstrukcji ze świateł (dalekich – punktowych lub rozszczepionych) oraz laserów. Na scenie natomiast rozmieszczone są telebimy oraz twarz, która ma być uosobieniem Qlimax.
    Jak na większości tego typu wydarze? używany jest również tzw. "suchy lód", potocznie nazywany też "dymem". Qlimax odbywa się w sobotnią noc listopada, co roku, od 1994.


    QLIMAX (2008) Blu-ray 1080i AVC LPCM 5.1



    Qlimax (2008) (BD25) Bluray Untouched HD 1080i
    Bluray Untouched HD 1080i 1920 x 1080 | English: DD 5.1, DTS 5.1, LPCM 5.1 | 107 min | 23300 MB
    Genre: Music Video, Hardstyle


    Lista utworów:


    Spoiler:
    LIVE CD COMPILED AND MIXED BY TATANKA
    01 - Tatanka & Zany feat MC DV8 - Connection
    02 - Frontliner – Warphole
    03 - Tatanka – Borderline
    04 - Hardstyle Masterz – Junior
    05 - Headhunterz - The Fear Of Darkness
    06 - Crypsis Feat Sasha F - Get Hit
    07 - Tatanka pres. J. Hiroshy – Showtime (Tatanka Remix)
    08 - The Viper & G-Town Madness - Here It Comes (D-Block & S-Te-Fan Remix)
    09 - Wild Motherfuckers - B2BW
    10 - Hyperdrive – Punishment
    11 - T4t4nk4 - Let’s Rock
    12 - Crypsis – Jealousy
    13 - Bass Modulators Vs B-Front – Quarantine
    14 - Tat & Zat - Scary Track
    15 - Duro meets Wild Motherfuckers - Cocaine Fothermucker (Jack of Sound Mashup)
    16 - TNT Aka Technoboy & Tuneboy - Double Dutch Darkies
    17 - Zany – Thugs (Noisecontrollers Remix)
    18 - Tatarola feat Darook Mc - Insane Remix




    Technical Specs
    Spoiler:
    Time: 01:52:00
    Blu-ray
    BD-25 Single-Layer Disc

    Video Resolution
    1080i/AVC MPEG-4

    Aspect Ratio(s)
    1.78:1

    Audio Formats
    Dolby Digital 5.1 (448 kbps)
    DTS 5.1 (24bit, 48Khz, 1536 kbps)
    LPCM 5.1 (16bit, 48Khz, 4608 kbps)

    Subtitles/Captions
    None

    Supplements
    None

    Exclusive HD Content
    None






    Kompresja RAR + 10% Danych Naprawczych
    Brak Hasła
    Plki po 1,7Gb
    Pliki można pobierać na przemian

    Storbit - Rapidu - FileShark - CatShare :


    Linki / Download / Mirror / Pobierz:
    Linki widoczne tylko dla zarejestrowanych użytkowników.
    Jedne konto wiele hostingów - BEZ LIMITÓW! -FileFox-
    LunaticFiles party po 6GB :



    Linki / Download / Mirror / Pobierz:
    Linki widoczne tylko dla zarejestrowanych użytkowników.
    Jedne konto wiele hostingów - BEZ LIMITÓW! -FileFox-


    QLIMAX: The Nature of Our Mind (2009) Blu-ray 1080i AVC DTS-HD 5.1



    Styl: Jumpstyle, Hardstyle, Hardcore, Elektronisch
    Rok Wydania: 2009
    Blu-ray BD-25 Single-Layer Disc
    Video Resolution/Codec: 1080i/AVC MPEG-4
    Audio Formats: DTS-HD MA 5.1 (48 kHz / 3269 kbps / 16-bit)
    Dolby Digital 5.1 (448 kbps)

    Lista utworów:


    Spoiler:
    Isaac 0:04:58 ------- Intro
    0:04:25 Dustin Zahn - Stranger to Stability (Len Faki Podium Mix)
    0:04:58 Pep 'N Up - Time & Space (Warp Brothers Remix)
    0:06:34 DJ Isaac - On The Edge 0:07:44 A-Lusion
    0:11:23 ------------ Intro
    0:08:56 A-Lusion & Scope DJ - Between Worlds (Qlimax Edit)
    0:11:23 Scope DJ - Mashed Up Vol.1
    0:13:01 Davide Sonar
    0:18:51 ------------------- Intro
    0:16:06 Davide Sonar - Believe (Edit)
    0:18:51 Davide Sonar - Spiritual Fire
    0:20:50 Davide Sonar - Natural
    0:22:37 Davide Sonar - My World
    0:24:26 Brennan Heart
    0:29:20 -------------------- Intro
    0:26:22 Brennan Heart - Just As Easy (Wildstylez and SMD Rmx)
    0:29:20 Brennan Heart - Van Halen Is A Rockstar
    0:32:54 Technoboy 0:39:38 --------------- Intro
    0:36:54 Showtek - Electronic Stereophonic
    0:39:41 Headhunterz - Rock Civilization (Technoboy Remix)
    0:42:27 D-Block & S-Te-Fan
    0:50:29 ---------------------------- Intro
    0:45:36 D-Block & S-Te-Fan - The Nature Of Our Mind
    0:47:40 D-Block & S-Te-Fan & Wildstylez - The Human Soul
    0:50:33 D-Block & S-Te-Fan - Together
    0:53:21 D-Block & S-Te-Fan Feat. High Voltage - Shiverz
    0:55:27 Headhunterz 0:58:35 ------------------ Intro
    0:56:26 Headhunterz - Psychedelic
    0:58:38 Headhunterz & Wildstylez vs. Noisecontrollers - Tonight
    1:02:13 Builder - Her Voice (Headhunterz Remix)
    1:04:00 Noisecontrollers
    1:12:46 ---------------------- Intro
    1:07:03 JDX feat. Sarah Maria - Live The Moment
    01:09:09 Noisecontrollers - Shrump (Dj Tool)
    1:12:49 Noisecontrollers - Shreek
    1:14:40 Noisecontrollers - Revolution Is Here
    1:16:39 Noisecontrollers - Samara
    1:18:19 Deepack 1:21:44 ------------ Intro
    1:19:45 Deepack - Prophecy (The Nature Of Our Mind 2009 Edit)
    1:21:48 Deepack ft. Coone - Thunderdance
    1:23:36 Deepack feat. MC Lan - Fire In Tha Place
    1:26:23 Noize Suppressor
    1:30:48 ------------------------- Intro
    1:28:28 Noize Suppressor & Mad Dog - Fire
    1:30:50 Noize Suppressor Vs?. Blur - Nobody Likes Song 2 (Mash-Up)
    1:32:34 Noize Suppressor - Nothing Else Matters Fingherz (Mash Up)
    1:34:18 -------- Outro (D-Block & S-Te-Fan - Nature Of Our Mind)
    1:36:42 -------- Qlimax 2009 - Das komplette Konzert in feinstem




    Technical Specs
    Spoiler:
    Time : 01:43:13
    Blu-ray
    BD-25 Single-Layer Disc

    Video Resolution/Codec
    1080i/AVC MPEG-4

    Aspect Ratio(s)
    1.78:1

    Audio Formats
    DTS-HD MA 5.1 (48 kHz / 3269 kbps / 16-bit)
    Dolby Digital 5.1 (448 kbps)

    Subtitles/Captions
    None

    Supplements
    The Documentary
    Brennan Heart Live
    The Trailer






    Kompresja RAR + 10% Danych Naprawczych
    Brak Hasła
    Plki po 1,7Gb
    Pliki można pobierać na przemian

    Storbit - Rapidu - FileShark - CatShare:


    Linki / Download / Mirror / Pobierz:
    Linki widoczne tylko dla zarejestrowanych użytkowników.
    Jedne konto wiele hostingów - BEZ LIMITÓW! -FileFox-
    LunaticFiles party po 6GB :



    Linki / Download / Mirror / Pobierz:
    Linki widoczne tylko dla zarejestrowanych użytkowników.
    Jedne konto wiele hostingów - BEZ LIMITÓW! -FileFox-
    QLIMAX: In An Alternate Reality (2010) Blu-ray 1080i AVC DTS-HD 5.1



    Genre : QLIMAX: In An Alternate Reality
    Rok Wydania : 2010
    Styl : Jumpstyle, Hardstyle, Hardcore, Elektronisch
    Wykonawcy : Pavelow, Stephanie, Wildstylez, TNT (Technoboy & Tuneboy), Brennan Heart, D-Block & S-te-Fan, Psyko Punkz, Zatox, Endymion & Evil Activities

    Lista utworów:


    Spoiler:
    1 Brennan Heart - Alternate Intro
    2 Pavelow - Beautiful & Rich
    3 Showtek - Breakbeat Junkie
    4 The Pitcher feat. Slim Shore - This Is Who We Are
    5 Frontliner - Loudnezz
    6 DJ Stephanie - Dresspunk
    7 Noisecontrollers - Disco Is The Music
    8 Nitrouz - City Bitch
    9 Technoboy - Catfight
    10 Brennan Heart - Alternate Reality (Qlimax Anthem 2010)
    11 Psyko Punkz - Bass Boom
    12 Wildstylez - Delay Distortion
    13 Brennan Heart - Till U Believe It
    14 Brooklyn Bounce - Club Bizarre (Headhunterz & Noisecontrollers Remix)
    15 Brennan Heart - Light The Fire
    16 Second Identity - God Of The Underworld
    17 Zany & Brennan Heart - Bang The Bass
    18 Zatox & Tatanka - Kickin' Ass
    19 Brennan Heart - Face The Enemy (Zany Remix)




    Technical Specs
    Spoiler:
    Time : 01:31:46
    Blu-ray
    BD-25 Single-Layer Disc

    Video Resolution/Codec
    1080i/AVC MPEG-4

    Aspect Ratio(s)
    1.78:1

    Audio Formats
    English DTS-HD MA 5.1 (48 kHz / 3271 kbps / 16-bit)
    English Dolby Digital 5.1 (448 kbps)

    Subtitles/Captions
    English
    Dutch

    Supplements
    The Making of The Anthem
    Artist Interviews
    Documentary
    Visitor Interviews






    Kompresja RAR + 10% Danych Naprawczych
    Brak Hasła
    Plki po 1,7Gb
    Pliki można pobierać na przemian

    Storbit - Rapidu - FileShark - CatShare:


    Linki / Download / Mirror / Pobierz:
    Linki widoczne tylko dla zarejestrowanych użytkowników.
    Jedne konto wiele hostingów - BEZ LIMITÓW! -FileFox-
    LunaticFiles party po 6GB :




    Linki / Download / Mirror / Pobierz:
    Linki widoczne tylko dla zarejestrowanych użytkowników.
    Jedne konto wiele hostingów - BEZ LIMITÓW! -FileFox-


  2. #2
    Użytkownik Array
    Dołączył
    Jun 2015
    Posty
    730
    Podziękował/a
    0
    Otrzymał/a podziękowań 12
    Siła reputacji
    78

    Domyślnie

    QLIMAX: Live Registration (2011) Blu-ray 1080p AVC DTS-HD 5.1



    Nazwa : QLIMAX: Live Registration
    Rok wyjścia : 2011
    Styl : Jumpstyle, Hardstyle, Hardcore, Elektronisch
    Wykonawcy : Technoboy, Mauro Picotto, The Prophet, DJ Zany, Marco V, DJ Luna, Lady Dana

    Lista utworów:


    Spoiler:
    1 Psychedelic - Headhunterz - Qlimax 2011 Edit
    2 It's What We Are - Geck-o - Headhunterz Edit
    3 Calling - Omegatypez Feat. The Vision
    4 Melancholia - Wasted Penguinz
    5 Dream Dust - Frontliner
    6 From Within - Headhunterz - Winne Edit
    7 Power Of Your Mind - Headhunterz - 2011 Remix
    8 Midnight Skies - D-clear
    9 Tonight - Headhunterz Feat. Wildstylez & - Alpha2 Remix
    10 Hard With Style - Headhunterz
    11 We Are Posessed - Brennan Heart - Headhunterz Remix
    12 On The Go - Max Forcer & Frontliner
    13 Eternalize - Headhunterz - Hard Bass 2012 Anthem
    14 Perfect Weapon - Headhunterz & Zatox Feat. Nikk
    15 Face The Truth - B-front
    16 Headshot - Headhunterz
    17 Musical Analysis - B-front
    18 Doomed - Headhunterz - Blah Blah Blah Edit
    19 2011 Live - Qlimax




    Technical Specs
    Spoiler:
    Time : 01:46:34
    Blu-ray
    BD-25 Single-Layer Disc

    Video Resolution/Codec
    1080p/AVC MPEG-4

    Aspect Ratio(s)
    1.78:1

    Audio Formats
    English DTS-HD MA 5.1 (48 kHz / 3284 kbps / 16-bit)
    English Dolby Digital 5.1 (448 kbps)

    Subtitles/Captions
    English
    Dutch

    Supplements
    Documentary
    The Crowd
    Clip
    Trailer






    Kompresja RAR + 10% Danych Naprawczych
    Brak Hasła
    Plki po 1,7Gb
    Pliki można pobierać na przemian

    Storbit - Rapidu - FileShark - CatShare:


    Linki / Download / Mirror / Pobierz:
    Linki widoczne tylko dla zarejestrowanych użytkowników.
    Jedne konto wiele hostingów - BEZ LIMITÓW! -FileFox-
    LunaticFiles party po 6GB :



    Linki / Download / Mirror / Pobierz:
    Linki widoczne tylko dla zarejestrowanych użytkowników.
    Jedne konto wiele hostingów - BEZ LIMITÓW! -FileFox-
    QLIMAX - Fate or Fortune [Limited Edition] (2012) Blu-ray 1080p AVC DTS 5.1



    Nazwa : QLIMAX - Fate or Fortune
    Rok Wydania : 2013
    Styl : Dance, Electronic music (Hard Style)


    Lista utworów:


    Spoiler:

    1/1 - Intro Frontliner - Qdance
    1/2 - I 'm The Melodyman - Frontliner
    1/3 - All In This Together - Frontliner
    1/4 - Halos - Frontliner ft. John Harris
    1/5 - Dream Dust - Frontliner
    1/6 - Rage - Technoboy - Frontliner Remix
    1/7 - On The Go - Max Enforcer & Frontliner - Qlimax 2012 Edit
    1/8 - Death Of A Demon - Frontliner ft. Nikkita
    1/9 - Symbols - Frontliner - Q-Base Open Air 2012 O.S.T.
    1/10 - Intro Brennan Heart - Qdance
    1/11 - One-Master-Blade - Brennan Heart
    1/12 - Lose My Mind - Brennan Heart & Wildstylez
    1/13 - This is not - Brennan Heart
    1/14 - Freaqshow 2012 O.S.T. - Brennan Heart
    1/15 - Life That We Dream Of - Brennan Heart
    1/16 - Hardbass Junkie - Brennan Heart
    1/17 - Van Halen is a Rockstar - Brennan Heart
    1/18 - Running Late - Brennan Heart
    1/19 - We Can Escape - Brennan Heart - Official Intents Anthem 2012
    1/20 - Never Break Me - Brennan Heart
    1/21 - he MF Point of Perfection - Brennan Heart & Headhunterz
    1/22 - Reputation Game - Brennan Heart & Wildstylez
    1/23 - Running Late - Brennan Heart - Brennan Heart & Code Black MF
    1/24 - Fit In Or Fuck Off - Brennan Heart - F.I.F.O.
    1/25 - Bang The Bass - Brennan Heart & Zany
    1/26 - Intro Adaro - Qdance
    1/27 - The Haunter of the Dark - Adaro
    1/28 - Lost in the mist - Crypsis
    1/29 - Bolivia - Gunz for hire
    1/30 - Mistress - Solutio & The I's
    1/31 - Fuck the fake shit - Artic - Adaro Remix
    1/32 - Attention - Frequencerz & E-Force
    1/33 - Natural born killers - adaro & Digital Punk
    1/34 - Masterclass - E-Force & Luna
    1/35 - Satana - Acti & Jajox
    1/36 - Kings of the underground - Gunz for hire



    BDInfo Report :
    Spoiler:
    DISC INFO:

    Disc Title: QLIMAX 2012
    Disc Size: 24 632 117 632 bytes
    Protection: AACS
    BD-Java: No
    Extras: 50Hz Content
    BDInfo: 0.5.8

    PLAYLIST REPORT:

    Name: 00002.MPLS
    Length: 2:14:48.416 (h:m:s.ms)
    Size: 21 285 617 664 bytes
    Total Bitrate: 21,05 Mbps

    VIDEO:

    Codec Bitrate Description
    ----- ------- -----------
    MPEG-4 AVC Video 17990 kbps 1080p / 24 fps / 16:9 / High Profile 4.1

    AUDIO:

    Codec Language Bitrate Description
    ----- -------- ------- -----------
    Dolby Digital Audio English 448 kbps 5.1 / 48 kHz / 448 kbps
    DTS Audio English 1509 kbps 5.1 / 48 kHz / 1509 kbps / 16-bit

    SUBTITLES:

    Codec Language Bitrate Description
    ----- -------- ------- -----------
    Presentation Graphics Dutch 0,016 kbps
    Presentation Graphics English 0,016 kbps

    FILES:

    Name Time In Length Size Total Bitrate
    ---- ------- ------ ---- -------------
    00003.M2TS 0:00:00.000 2:10:10.916 20 555 415 552 21 053
    00011.M2TS 2:10:10.916 0:04:37.500 730 202 112 21 051



    Technical Specs
    Spoiler:
    Time : 02:14:48
    Blu-ray
    BD-25 Single-Layer Disc

    Video Resolution/Codec
    1080p/AVC MPEG-4

    Aspect Ratio(s)
    2.34:1

    Audio Formats
    English Dolby Digital 5.1 (48 kHz / 448 kbps)
    English DTS 5.1 (48 kHz / 1509 kbps / 16-bit)

    Subtitles/Captions
    Dutch (not for Qlimax Live)
    English (not for Qlimax Live)

    Supplements
    Documentary
    Trailer
    Aftermovie

    BonusDisc: "QLIMAX 2012 Bonus CD"
    Audio:
    FLAC 2.0 / ~1024kbps / 44,1 kHz / 16 bit






    Kompresja RAR + 10% Danych Naprawczych
    Brak Hasła
    Plki po 1,7Gb
    Pliki można pobierać na przemian

    Storbit - Rapidu - FileShark - CatShare:


    Linki / Download / Mirror / Pobierz:
    Linki widoczne tylko dla zarejestrowanych użytkowników.
    Jedne konto wiele hostingów - BEZ LIMITÓW! -FileFox-
    LunaticFiles party po 6GB :



    Linki / Download / Mirror / Pobierz:
    Linki widoczne tylko dla zarejestrowanych użytkowników.
    Jedne konto wiele hostingów - BEZ LIMITÓW! -FileFox-
    Qlimax: Immortal Essence (2013) Blu-ray 1080p AVC DTS-HD 5.1



    Nazwa : Qlimax: Immortal Essence
    Rok Wyjścia : 2013
    Styl : Jumpstyle, Hardstyle, Hardcore, Elektronisch

    Lista utworów:


    Spoiler:

    01. ACTI - Peacock
    02. Code Black - Pandora
    03. Max Enforcer - Lost in Paradise
    04. Wasted Penguinz & Toneshifterz - Together
    05. Brennan Heart & Jonathan Mendelsohn - Imaginary
    06. Code Black - Feels Good
    07. Code Black & Brennan Heart - Tonight Will Never Die
    08. Wasted Penguinz & Rebourne - Sorrow
    09. Psyko Punkz - Trippy Hippie
    10. Toneshifterz feat Chris Madin - Parachutes
    11. Tuneboy - XY
    12. Outbreak - The Nightmare Factory
    13. Code Black - I.N. C.O.N.T.R.O.L.
    14. Gunz for Hire feat. Ruffian - Immortal (Qlimax Anthem 2013)
    15. Coone feat.Kritikal - Zombie Killer
    16. Alpha2 - Unleashed Once Again
    17. Atmozfears & Energyzed - The Harvest
    18. Ran-D & Digital Punk - Rebel to the Grave
    19. Wild Motherfuckers - Natural Born Raver
    20. Art Of Fighters & Mad Dog - Badass



    BDInfo Report :
    Spoiler:
    DISC INFO:

    Disc Title: QLIMAX2013
    Disc Size: 33 982 140 454 bytes
    Protection: AACS
    BD-Java: No
    BDInfo: 0.5.8

    PLAYLIST REPORT:

    Name: 00003.MPLS
    Length: 2:14:29.875 (h:m:s.ms)
    Size: 29 410 197 504 bytes
    Total Bitrate: 29,16 Mbps

    VIDEO:

    Codec Bitrate Description
    ----- ------- -----------
    MPEG-4 AVC Video 23988 kbps 1080p / 24 fps / 16:9 / High Profile 4.1

    AUDIO:

    Codec Language Bitrate Description
    ----- -------- ------- -----------
    DTS-HD Master Audio English 3193 kbps 5.1 / 48 kHz / 3193 kbps / 16-bit (DTS Core: 5.1 / 48 kHz / 1509 kbps / 16-bit)
    Dolby Digital Audio English 448 kbps 5.1 / 48 kHz / 448 kbps

    SUBTITLES:

    Codec Language Bitrate Description
    ----- -------- ------- -----------
    Presentation Graphics English 0,008 kbps
    Presentation Graphics Dutch 0,008 kbps

    FILES:

    Name Time In Length Size Total Bitrate
    ---- ------- ------ ---- -------------
    00005.M2TS 0:00:00.000 2:14:29.875 29 410 197 504 29 156



    Technical Specs
    Spoiler:
    Time : 02:14:29
    Blu-ray
    BD-50 Dual-Layer Disc

    Video Resolution/Codec
    1080p/AVC MPEG-4

    Aspect Ratio(s)
    2.35:1

    Audio Formats
    English DTS-HD MA 5.1 (48 kHz / 3193 kbps / 16-bit)
    English Dolby Digital 5.1 (448 kbps)

    Subtitles/Captions
    None

    Supplements
    The Artists - 8:09 min
    Aftermovie - 7:12 min
    Trailer - 1:57 min






    Kompresja RAR + 10% Danych Naprawczych
    Brak Hasła
    Plki po 1,7Gb
    Pliki można pobierać na przemian

    Storbit - Rapidu - FileShark - CatShare:


    Linki / Download / Mirror / Pobierz:
    Linki widoczne tylko dla zarejestrowanych użytkowników.
    Jedne konto wiele hostingów - BEZ LIMITÓW! -FileFox-
    LunaticFiles party po 6GB :



    Linki / Download / Mirror / Pobierz:
    Linki widoczne tylko dla zarejestrowanych użytkowników.
    Jedne konto wiele hostingów - BEZ LIMITÓW! -FileFox-

  3. #3
    Użytkownik Array
    Dołączył
    Jun 2015
    Posty
    730
    Podziękował/a
    0
    Otrzymał/a podziękowań 12
    Siła reputacji
    78

    Domyślnie

    Qlimax (2008 - 2013) Kolekcja BluRay.1080p.x264.DTS-DX

    Spoiler:


    Genre: Music Video, Hardstyle

    Qlimax & event organizacji Q-dance, podczas którego grany jest głównie Hardstyle. Zwykle ma on miejsce w hali Gelredome (Arnhem, w Holandii). W 2006 i 2007 roku odbył się także w Belgii.

    To jedno z największych wydarze? na tle muzyki elektronicznej, a dokładniej jej mocniejszych gatunków jak właśnie hardstyle. Coroczna impreza Qlimax jest największą tego typu w Europie. Słynie z bardzo nowoczesnych efektów świetlnych, pokazów laserów oraz efektów pirotechnicznych. Na masywnych ścianach i filarach Gelredome organizatorzy rozmieszczają mnóstwo konstrukcji ze świateł (dalekich – punktowych lub rozszczepionych) oraz laserów. Na scenie natomiast rozmieszczone są telebimy oraz twarz, która ma być uosobieniem Qlimax.
    Jak na większości tego typu wydarze? używany jest również tzw. "suchy lód", potocznie nazywany też "dymem". Qlimax odbywa się w sobotnią noc listopada, co roku, od 1994.



    QLIMAX (2008) BluRay.1080p.x264.DTS-DX

    Spoiler:



    Lista utworów:

    Spoiler:
    LIVE CD COMPILED AND MIXED BY TATANKA
    01 - Tatanka & Zany feat MC DV8 - Connection
    02 - Frontliner – Warphole
    03 - Tatanka – Borderline
    04 - Hardstyle Masterz – Junior
    05 - Headhunterz - The Fear Of Darkness
    06 - Crypsis Feat Sasha F - Get Hit
    07 - Tatanka pres. J. Hiroshy – Showtime (Tatanka Remix)
    08 - The Viper & G-Town Madness - Here It Comes (D-Block & S-Te-Fan Remix)
    09 - Wild Motherfuckers - B2BW
    10 - Hyperdrive – Punishment
    11 - T4t4nk4 - Let’s Rock
    12 - Crypsis – Jealousy
    13 - Bass Modulators Vs B-Front – Quarantine
    14 - Tat & Zat - Scary Track
    15 - Duro meets Wild Motherfuckers - Cocaine Fothermucker (Jack of Sound Mashup)
    16 - TNT Aka Technoboy & Tuneboy - Double Dutch Darkies
    17 - Zany – Thugs (Noisecontrollers Remix)
    18 - Tatarola feat Darook Mc - Insane Remix



    General
    Spoiler:
    Format : Matroska
    File size : 11.4 GiB
    Duration : 1h 52mn
    Overall bit rate : 14.6 Mbps
    Video #1
    ID : 1
    Format : AVC
    Format/Info : Advanced Video Codec
    Format profile : Main@L4.1
    Codec ID : V_MPEG4/ISO/AVC
    Duration : 1h 52mn
    Bit rate : 12.8 Mbps
    Nominal bit rate : 13.1 Mbps
    Width : 1 908 pixels
    Height : 1 080 pixels
    Display aspect ratio : 16:9
    Frame rate : 25.000 fps
    Resolution : 24 bits
    Audio #2
    ID : 2
    Format : DTS
    Format/Info : Digital Theater Systems
    Codec ID : A_DTS
    Duration : 1h 52mn
    Bit rate mode : Constant
    Bit rate : 1 510 Kbps
    Channel(s) : 6 channels
    Channel positions : Front: L C R, Surround: L R, LFE
    Sampling rate : 48.0 KHz
    Resolution : 24 bits
    Stream size : 1.18 GiB (10%)



    Kompresja RAR + 10% Danych Naprawczych
    Brak Hasła
    Plki po 2Gb
    Pliki można pobierać na przemian

    Rapidu - FileShark - LunaticFiles :


    Linki / Download / Mirror / Pobierz:
    Linki widoczne tylko dla zarejestrowanych użytkowników.
    Jedne konto wiele hostingów - BEZ LIMITÓW! -FileFox-
    QLIMAX: The Nature of Our Mind (2009) BluRay.1080p.x264.DTS-DX

    Spoiler:



    Lista utworów:

    Spoiler:
    Isaac 0:04:58 ------- Intro
    0:04:25 Dustin Zahn - Stranger to Stability (Len Faki Podium Mix)
    0:04:58 Pep 'N Up - Time & Space (Warp Brothers Remix)
    0:06:34 DJ Isaac - On The Edge 0:07:44 A-Lusion
    0:11:23 ------------ Intro
    0:08:56 A-Lusion & Scope DJ - Between Worlds (Qlimax Edit)
    0:11:23 Scope DJ - Mashed Up Vol.1
    0:13:01 Davide Sonar
    0:18:51 ------------------- Intro
    0:16:06 Davide Sonar - Believe (Edit)
    0:18:51 Davide Sonar - Spiritual Fire
    0:20:50 Davide Sonar - Natural
    0:22:37 Davide Sonar - My World
    0:24:26 Brennan Heart
    0:29:20 -------------------- Intro
    0:26:22 Brennan Heart - Just As Easy (Wildstylez and SMD Rmx)
    0:29:20 Brennan Heart - Van Halen Is A Rockstar
    0:32:54 Technoboy 0:39:38 --------------- Intro
    0:36:54 Showtek - Electronic Stereophonic
    0:39:41 Headhunterz - Rock Civilization (Technoboy Remix)
    0:42:27 D-Block & S-Te-Fan
    0:50:29 ---------------------------- Intro
    0:45:36 D-Block & S-Te-Fan - The Nature Of Our Mind
    0:47:40 D-Block & S-Te-Fan & Wildstylez - The Human Soul
    0:50:33 D-Block & S-Te-Fan - Together
    0:53:21 D-Block & S-Te-Fan Feat. High Voltage - Shiverz
    0:55:27 Headhunterz 0:58:35 ------------------ Intro
    0:56:26 Headhunterz - Psychedelic
    0:58:38 Headhunterz & Wildstylez vs. Noisecontrollers - Tonight
    1:02:13 Builder - Her Voice (Headhunterz Remix)
    1:04:00 Noisecontrollers
    1:12:46 ---------------------- Intro
    1:07:03 JDX feat. Sarah Maria - Live The Moment
    01:09:09 Noisecontrollers - Shrump (Dj Tool)
    1:12:49 Noisecontrollers - Shreek
    1:14:40 Noisecontrollers - Revolution Is Here
    1:16:39 Noisecontrollers - Samara
    1:18:19 Deepack 1:21:44 ------------ Intro
    1:19:45 Deepack - Prophecy (The Nature Of Our Mind 2009 Edit)
    1:21:48 Deepack ft. Coone - Thunderdance
    1:23:36 Deepack feat. MC Lan - Fire In Tha Place
    1:26:23 Noize Suppressor
    1:30:48 ------------------------- Intro
    1:28:28 Noize Suppressor & Mad Dog - Fire
    1:30:50 Noize Suppressor Vs?. Blur - Nobody Likes Song 2 (Mash-Up)
    1:32:34 Noize Suppressor - Nothing Else Matters Fingherz (Mash Up)
    1:34:18 -------- Outro (D-Block & S-Te-Fan - Nature Of Our Mind)
    1:36:42 -------- Qlimax 2009 - Das komplette Konzert in feinstem




    General
    Spoiler:
    Format : Matroska
    File size : 11.8 GiB
    Duration : 1h 43mn
    Overall bit rate : 16.3 Mbps
    Video #1
    ID : 1
    Format : AVC
    Format/Info : Advanced Video Codec
    Format profile : Main@L4.1
    Codec ID : V_MPEG4/ISO/AVC
    Duration : 1h 43mn
    Bit rate : 14.4 Mbps
    Nominal bit rate : 15.1 Mbps
    Width : 1 918 pixels
    Height : 1 080 pixels
    Display aspect ratio : 16:9
    Frame rate : 25.000 fps
    Resolution : 24 bits
    Audio #2
    ID : 2
    Format : DTS
    Format/Info : Digital Theater Systems
    Codec ID : A_DTS
    Duration : 1h 43mn
    Bit rate mode : Constant
    Bit rate : 1 510 Kbps
    Channel(s) : 6 channels
    Channel positions : Front: L C R, Surround: L R, LFE
    Sampling rate : 48.0 KHz
    Resolution : 16 bits
    Stream size : 1.09 GiB (9%)



    Kompresja RAR + 10% Danych Naprawczych
    Brak Hasła
    Plki po 2Gb
    Pliki można pobierać na przemian

    Rapidu - FileShark - LunaticFiles:


    Linki / Download / Mirror / Pobierz:
    Linki widoczne tylko dla zarejestrowanych użytkowników.
    Jedne konto wiele hostingów - BEZ LIMITÓW! -FileFox-

    QLIMAX: In An Alternate Reality (2010) BluRay.1080p.x264.DTS-DX

    Spoiler:



    Lista utworów:

    Spoiler:
    1 Brennan Heart - Alternate Intro
    2 Pavelow - Beautiful & Rich
    3 Showtek - Breakbeat Junkie
    4 The Pitcher feat. Slim Shore - This Is Who We Are
    5 Frontliner - Loudnezz
    6 DJ Stephanie - Dresspunk
    7 Noisecontrollers - Disco Is The Music
    8 Nitrouz - City Bitch
    9 Technoboy - Catfight
    10 Brennan Heart - Alternate Reality (Qlimax Anthem 2010)
    11 Psyko Punkz - Bass Boom
    12 Wildstylez - Delay Distortion
    13 Brennan Heart - Till U Believe It
    14 Brooklyn Bounce - Club Bizarre (Headhunterz & Noisecontrollers Remix)
    15 Brennan Heart - Light The Fire
    16 Second Identity - God Of The Underworld
    17 Zany & Brennan Heart - Bang The Bass
    18 Zatox & Tatanka - Kickin' Ass
    19 Brennan Heart - Face The Enemy (Zany Remix)




    General
    Spoiler:
    Format : Matroska
    File size : 11.5 GiB
    Duration : 1h 31mn
    Overall bit rate : 18.0 Mbps
    Video #1
    ID : 1
    Format : AVC
    Format/Info : Advanced Video Codec
    Format profile : Main@L4.1
    Codec ID : V_MPEG4/ISO/AVC
    Duration : 1h 31mn
    Bit rate : 16.1 Mbps
    Nominal bit rate : 16.4 Mbps
    Width : 1 920 pixels
    Height : 1 080 pixels
    Display aspect ratio : 16:9
    Frame rate : 25.000 fps
    Resolution : 24 bits
    Audio #2
    ID : 2
    Format : DTS
    Format/Info : Digital Theater Systems
    Codec ID : A_DTS
    Duration : 1h 31mn
    Bit rate mode : Constant
    Bit rate : 1 510 Kbps
    Channel(s) : 6 channels
    Channel positions : Front: L C R, Surround: L R, LFE
    Sampling rate : 48.0 KHz
    Resolution : 16 bits
    Stream size : 991 MiB (8%)



    Kompresja RAR + 10% Danych Naprawczych
    Brak Hasła
    Plki po 2Gb
    Pliki można pobierać na przemian

    Rapidu - FileShark - LunaticFiles:


    Linki / Download / Mirror / Pobierz:
    Linki widoczne tylko dla zarejestrowanych użytkowników.
    Jedne konto wiele hostingów - BEZ LIMITÓW! -FileFox-

    QLIMAX: Live Registration (2011) BluRay.1080p.x264.DTS-DX

    Spoiler:



    Lista utworów:

    Spoiler:
    1 Psychedelic - Headhunterz - Qlimax 2011 Edit
    2 It's What We Are - Geck-o - Headhunterz Edit
    3 Calling - Omegatypez Feat. The Vision
    4 Melancholia - Wasted Penguinz
    5 Dream Dust - Frontliner
    6 From Within - Headhunterz - Winne Edit
    7 Power Of Your Mind - Headhunterz - 2011 Remix
    8 Midnight Skies - D-clear
    9 Tonight - Headhunterz Feat. Wildstylez & - Alpha2 Remix
    10 Hard With Style - Headhunterz
    11 We Are Posessed - Brennan Heart - Headhunterz Remix
    12 On The Go - Max Forcer & Frontliner
    13 Eternalize - Headhunterz - Hard Bass 2012 Anthem
    14 Perfect Weapon - Headhunterz & Zatox Feat. Nikk
    15 Face The Truth - B-front
    16 Headshot - Headhunterz
    17 Musical Analysis - B-front
    18 Doomed - Headhunterz - Blah Blah Blah Edit
    19 2011 Live - Qlimax




    General
    Spoiler:
    Format : Matroska
    File size : 11.4 GiB
    Duration : 1h 46mn
    Overall bit rate : 15.3 Mbps
    Video #1
    ID : 1
    Format : AVC
    Format/Info : Advanced Video Codec
    Format profile : Main@L4.1
    Codec ID : V_MPEG4/ISO/AVC
    Duration : 1h 46mn
    Bit rate : 13.5 Mbps
    Nominal bit rate : 13.8 Mbps
    Width : 1 920 pixels
    Height : 776 pixels
    Display aspect ratio : 2.474
    Frame rate : 24.000 fps
    Resolution : 24 bits
    Audio #2
    ID : 2
    Format : DTS
    Format/Info : Digital Theater Systems
    Codec ID : A_DTS
    Duration : 1h 46mn
    Bit rate mode : Constant
    Bit rate : 1 510 Kbps
    Channel(s) : 6 channels
    Channel positions : Front: L C R, Surround: L R, LFE
    Sampling rate : 48.0 KHz
    Resolution : 16 bits
    Stream size : 1.12 GiB (10%)




    Kompresja RAR + 10% Danych Naprawczych
    Brak Hasła
    Plki po 2Gb
    Pliki można pobierać na przemian

    Rapidu - FileShark - LunaticFiles:


    Linki / Download / Mirror / Pobierz:
    Linki widoczne tylko dla zarejestrowanych użytkowników.
    Jedne konto wiele hostingów - BEZ LIMITÓW! -FileFox-

    QLIMAX - Fate or Fortune [Limited Edition] (2012) BluRay.1080p.x264.DTS-DX

    Spoiler:



    Lista utworów:
    Spoiler:
    1/1 - Intro Frontliner - Qdance
    1/2 - I 'm The Melodyman - Frontliner
    1/3 - All In This Together - Frontliner
    1/4 - Halos - Frontliner ft. John Harris
    1/5 - Dream Dust - Frontliner
    1/6 - Rage - Technoboy - Frontliner Remix
    1/7 - On The Go - Max Enforcer & Frontliner - Qlimax 2012 Edit
    1/8 - Death Of A Demon - Frontliner ft. Nikkita
    1/9 - Symbols - Frontliner - Q-Base Open Air 2012 O.S.T.
    1/10 - Intro Brennan Heart - Qdance
    1/11 - One-Master-Blade - Brennan Heart
    1/12 - Lose My Mind - Brennan Heart & Wildstylez
    1/13 - This is not - Brennan Heart
    1/14 - Freaqshow 2012 O.S.T. - Brennan Heart
    1/15 - Life That We Dream Of - Brennan Heart
    1/16 - Hardbass Junkie - Brennan Heart
    1/17 - Van Halen is a Rockstar - Brennan Heart
    1/18 - Running Late - Brennan Heart
    1/19 - We Can Escape - Brennan Heart - Official Intents Anthem 2012
    1/20 - Never Break Me - Brennan Heart
    1/21 - he MF Point of Perfection - Brennan Heart & Headhunterz
    1/22 - Reputation Game - Brennan Heart & Wildstylez
    1/23 - Running Late - Brennan Heart - Brennan Heart & Code Black MF
    1/24 - Fit In Or Fuck Off - Brennan Heart - F.I.F.O.
    1/25 - Bang The Bass - Brennan Heart & Zany
    1/26 - Intro Adaro - Qdance
    1/27 - The Haunter of the Dark - Adaro
    1/28 - Lost in the mist - Crypsis
    1/29 - Bolivia - Gunz for hire
    1/30 - Mistress - Solutio & The I's
    1/31 - Fuck the fake shit - Artic - Adaro Remix
    1/32 - Attention - Frequencerz & E-Force
    1/33 - Natural born killers - adaro & Digital Punk
    1/34 - Masterclass - E-Force & Luna
    1/35 - Satana - Acti & Jajox
    1/36 - Kings of the underground - Gunz for hire



    General
    Spoiler:
    Format : Matroska
    File size : 11.7 GiB
    Duration : 2h 10mn
    Overall bit rate : 12.9 Mbps
    Video #1
    ID : 1
    Format : AVC
    Format/Info : Advanced Video Codec
    Format profile : Main@L4.1
    Codec ID : V_MPEG4/ISO/AVC
    Duration : 2h 10mn
    Bit rate : 11.1 Mbps
    Nominal bit rate : 11.3 Mbps
    Width : 1 920 pixels
    Height : 960 pixels
    Display aspect ratio : 2.000
    Frame rate : 24.000 fps
    Resolution : 24 bits
    Audio #2
    ID : 2
    Format : DTS
    Format/Info : Digital Theater Systems
    Codec ID : A_DTS
    Duration : 2h 10mn
    Bit rate mode : Constant
    Bit rate : 1 510 Kbps
    Channel(s) : 6 channels
    Channel positions : Front: L C R, Surround: L R, LFE
    Sampling rate : 48.0 KHz
    Resolution : 16 bits
    Stream size : 1.37 GiB (12%)



    Kompresja RAR + 10% Danych Naprawczych
    Brak Hasła
    Plki po 2Gb
    Pliki można pobierać na przemian

    Rapidu - FileShark - LunaticFiles:


    Linki / Download / Mirror / Pobierz:
    Linki widoczne tylko dla zarejestrowanych użytkowników.
    Jedne konto wiele hostingów - BEZ LIMITÓW! -FileFox-
    Qlimax: Immortal Essence (2013) BluRay.1080p.x264.DTS-DX

    Spoiler:



    Lista utworów:

    Spoiler:
    01. ACTI - Peacock
    02. Code Black - Pandora
    03. Max Enforcer - Lost in Paradise
    04. Wasted Penguinz & Toneshifterz - Together
    05. Brennan Heart & Jonathan Mendelsohn - Imaginary
    06. Code Black - Feels Good
    07. Code Black & Brennan Heart - Tonight Will Never Die
    08. Wasted Penguinz & Rebourne - Sorrow
    09. Psyko Punkz - Trippy Hippie
    10. Toneshifterz feat Chris Madin - Parachutes
    11. Tuneboy - XY
    12. Outbreak - The Nightmare Factory
    13. Code Black - I.N. C.O.N.T.R.O.L.
    14. Gunz for Hire feat. Ruffian - Immortal (Qlimax Anthem 2013)
    15. Coone feat.Kritikal - Zombie Killer
    16. Alpha2 - Unleashed Once Again
    17. Atmozfears & Energyzed - The Harvest
    18. Ran-D & Digital Punk - Rebel to the Grave
    19. Wild Motherfuckers - Natural Born Raver
    20. Art Of Fighters & Mad Dog - Badass



    General
    Spoiler:
    Format : Matroska
    File size : 11.4 GiB
    Duration : 2h 14mn
    Overall bit rate : 12.1 Mbps
    Video #1
    ID : 1
    Format : AVC
    Format/Info : Advanced Video Codec
    Format profile : Main@L4.1
    Codec ID : V_MPEG4/ISO/AVC
    Duration : 2h 14mn
    Bit rate : 10.4 Mbps
    Nominal bit rate : 10.6 Mbps
    Width : 1 916 pixels
    Height : 816 pixels
    Display aspect ratio : 2.35:1
    Frame rate : 24.000 fps
    Resolution : 24 bits
    Audio #2
    ID : 2
    Format : DTS
    Format/Info : Digital Theater Systems
    Codec ID : A_DTS
    Duration : 2h 14mn
    Bit rate mode : Constant
    Bit rate : 1 510 Kbps
    Channel(s) : 6 channels
    Channel positions : Front: L C R, Surround: L R, LFE
    Sampling rate : 48.0 KHz
    Resolution : 16 bits
    Stream size : 1.42 GiB (12%)



    Kompresja RAR + 10% Danych Naprawczych
    Brak Hasła
    Plki po 2Gb
    Pliki można pobierać na przemian

    Rapidu - FileShark - LunaticFiles:


    Linki / Download / Mirror / Pobierz:
    Linki widoczne tylko dla zarejestrowanych użytkowników.
    Jedne konto wiele hostingów - BEZ LIMITÓW! -FileFox-

  4. #4
    Użytkownik Array
    Dołączył
    Jun 2015
    Posty
    730
    Podziękował/a
    0
    Otrzymał/a podziękowań 12
    Siła reputacji
    78

    Domyślnie

    Qlimax (2008 - 2013) Kolekcja BluRay.1080p.x264.DTS-DX
    Spoiler:



    Genre: Music Video, Hardstyle

    Qlimax & event organizacji Q-dance, podczas którego grany jest głównie Hardstyle. Zwykle ma on miejsce w hali Gelredome (Arnhem, w Holandii). W 2006 i 2007 roku odbył się także w Belgii.

    To jedno z największych wydarze? na tle muzyki elektronicznej, a dokładniej jej mocniejszych gatunków jak właśnie hardstyle. Coroczna impreza Qlimax jest największą tego typu w Europie. Słynie z bardzo nowoczesnych efektów świetlnych, pokazów laserów oraz efektów pirotechnicznych. Na masywnych ścianach i filarach Gelredome organizatorzy rozmieszczają mnóstwo konstrukcji ze świateł (dalekich – punktowych lub rozszczepionych) oraz laserów. Na scenie natomiast rozmieszczone są telebimy oraz twarz, która ma być uosobieniem Qlimax.
    Jak na większości tego typu wydarze? używany jest również tzw. "suchy lód", potocznie nazywany też "dymem". Qlimax odbywa się w sobotnią noc listopada, co roku, od 1994.



    QLIMAX (2008) BluRay.1080p.x264.DTS-DX

    Lista utworów:

    Spoiler:
    LIVE CD COMPILED AND MIXED BY TATANKA
    01 - Tatanka & Zany feat MC DV8 - Connection
    02 - Frontliner – Warphole
    03 - Tatanka – Borderline
    04 - Hardstyle Masterz – Junior
    05 - Headhunterz - The Fear Of Darkness
    06 - Crypsis Feat Sasha F - Get Hit
    07 - Tatanka pres. J. Hiroshy – Showtime (Tatanka Remix)
    08 - The Viper & G-Town Madness - Here It Comes (D-Block & S-Te-Fan Remix)
    09 - Wild Motherfuckers - B2BW
    10 - Hyperdrive – Punishment
    11 - T4t4nk4 - Let’s Rock
    12 - Crypsis – Jealousy
    13 - Bass Modulators Vs B-Front – Quarantine
    14 - Tat & Zat - Scary Track
    15 - Duro meets Wild Motherfuckers - Cocaine Fothermucker (Jack of Sound Mashup)
    16 - TNT Aka Technoboy & Tuneboy - Double Dutch Darkies
    17 - Zany – Thugs (Noisecontrollers Remix)
    18 - Tatarola feat Darook Mc - Insane Remix



    General
    Spoiler:
    Format : Matroska
    File size : 11.4 GiB
    Duration : 1h 52mn
    Overall bit rate : 14.6 Mbps
    Video #1
    ID : 1
    Format : AVC
    Format/Info : Advanced Video Codec
    Format profile : Main@L4.1
    Codec ID : V_MPEG4/ISO/AVC
    Duration : 1h 52mn
    Bit rate : 12.8 Mbps
    Nominal bit rate : 13.1 Mbps
    Width : 1 908 pixels
    Height : 1 080 pixels
    Display aspect ratio : 16:9
    Frame rate : 25.000 fps
    Resolution : 24 bits
    Audio #2
    ID : 2
    Format : DTS
    Format/Info : Digital Theater Systems
    Codec ID : A_DTS
    Duration : 1h 52mn
    Bit rate mode : Constant
    Bit rate : 1 510 Kbps
    Channel(s) : 6 channels
    Channel positions : Front: L C R, Surround: L R, LFE
    Sampling rate : 48.0 KHz
    Resolution : 24 bits
    Stream size : 1.18 GiB (10%)



    Kompresja RAR + 10% Danych Naprawczych
    Brak Hasła
    Plki po 1,6Gb
    Pliki można pobierać na przemian
    Rapidu - FileShark :



    Linki / Download / Mirror / Pobierz:
    Linki widoczne tylko dla zarejestrowanych użytkowników.
    Jedne konto wiele hostingów - BEZ LIMITÓW! -FileFox-

    QLIMAX: The Nature of Our Mind (2009) BluRay.1080p.x264.DTS-DX

    Lista utworów:

    Spoiler:
    Isaac 0:04:58 ------- Intro
    0:04:25 Dustin Zahn - Stranger to Stability (Len Faki Podium Mix)
    0:04:58 Pep 'N Up - Time & Space (Warp Brothers Remix)
    0:06:34 DJ Isaac - On The Edge 0:07:44 A-Lusion
    0:11:23 ------------ Intro
    0:08:56 A-Lusion & Scope DJ - Between Worlds (Qlimax Edit)
    0:11:23 Scope DJ - Mashed Up Vol.1
    0:13:01 Davide Sonar
    0:18:51 ------------------- Intro
    0:16:06 Davide Sonar - Believe (Edit)
    0:18:51 Davide Sonar - Spiritual Fire
    0:20:50 Davide Sonar - Natural
    0:22:37 Davide Sonar - My World
    0:24:26 Brennan Heart
    0:29:20 -------------------- Intro
    0:26:22 Brennan Heart - Just As Easy (Wildstylez and SMD Rmx)
    0:29:20 Brennan Heart - Van Halen Is A Rockstar
    0:32:54 Technoboy 0:39:38 --------------- Intro
    0:36:54 Showtek - Electronic Stereophonic
    0:39:41 Headhunterz - Rock Civilization (Technoboy Remix)
    0:42:27 D-Block & S-Te-Fan
    0:50:29 ---------------------------- Intro
    0:45:36 D-Block & S-Te-Fan - The Nature Of Our Mind
    0:47:40 D-Block & S-Te-Fan & Wildstylez - The Human Soul
    0:50:33 D-Block & S-Te-Fan - Together
    0:53:21 D-Block & S-Te-Fan Feat. High Voltage - Shiverz
    0:55:27 Headhunterz 0:58:35 ------------------ Intro
    0:56:26 Headhunterz - Psychedelic
    0:58:38 Headhunterz & Wildstylez vs. Noisecontrollers - Tonight
    1:02:13 Builder - Her Voice (Headhunterz Remix)
    1:04:00 Noisecontrollers
    1:12:46 ---------------------- Intro
    1:07:03 JDX feat. Sarah Maria - Live The Moment
    01:09:09 Noisecontrollers - Shrump (Dj Tool)
    1:12:49 Noisecontrollers - Shreek
    1:14:40 Noisecontrollers - Revolution Is Here
    1:16:39 Noisecontrollers - Samara
    1:18:19 Deepack 1:21:44 ------------ Intro
    1:19:45 Deepack - Prophecy (The Nature Of Our Mind 2009 Edit)
    1:21:48 Deepack ft. Coone - Thunderdance
    1:23:36 Deepack feat. MC Lan - Fire In Tha Place
    1:26:23 Noize Suppressor
    1:30:48 ------------------------- Intro
    1:28:28 Noize Suppressor & Mad Dog - Fire
    1:30:50 Noize Suppressor Vs?. Blur - Nobody Likes Song 2 (Mash-Up)
    1:32:34 Noize Suppressor - Nothing Else Matters Fingherz (Mash Up)
    1:34:18 -------- Outro (D-Block & S-Te-Fan - Nature Of Our Mind)
    1:36:42 -------- Qlimax 2009 - Das komplette Konzert in feinstem




    General
    Spoiler:
    Format : Matroska
    File size : 11.8 GiB
    Duration : 1h 43mn
    Overall bit rate : 16.3 Mbps
    Video #1
    ID : 1
    Format : AVC
    Format/Info : Advanced Video Codec
    Format profile : Main@L4.1
    Codec ID : V_MPEG4/ISO/AVC
    Duration : 1h 43mn
    Bit rate : 14.4 Mbps
    Nominal bit rate : 15.1 Mbps
    Width : 1 918 pixels
    Height : 1 080 pixels
    Display aspect ratio : 16:9
    Frame rate : 25.000 fps
    Resolution : 24 bits
    Audio #2
    ID : 2
    Format : DTS
    Format/Info : Digital Theater Systems
    Codec ID : A_DTS
    Duration : 1h 43mn
    Bit rate mode : Constant
    Bit rate : 1 510 Kbps
    Channel(s) : 6 channels
    Channel positions : Front: L C R, Surround: L R, LFE
    Sampling rate : 48.0 KHz
    Resolution : 16 bits
    Stream size : 1.09 GiB (9%)



    Kompresja RAR + 10% Danych Naprawczych
    Brak Hasła
    Plki po 1,6Gb
    Pliki można pobierać na przemian
    Rapidu - FileShark :



    Linki / Download / Mirror / Pobierz:
    Linki widoczne tylko dla zarejestrowanych użytkowników.
    Jedne konto wiele hostingów - BEZ LIMITÓW! -FileFox-


    QLIMAX: In An Alternate Reality (2010) BluRay.1080p.x264.DTS-DX

    Lista utworów:

    Spoiler:
    1 Brennan Heart - Alternate Intro
    2 Pavelow - Beautiful & Rich
    3 Showtek - Breakbeat Junkie
    4 The Pitcher feat. Slim Shore - This Is Who We Are
    5 Frontliner - Loudnezz
    6 DJ Stephanie - Dresspunk
    7 Noisecontrollers - Disco Is The Music
    8 Nitrouz - City Bitch
    9 Technoboy - Catfight
    10 Brennan Heart - Alternate Reality (Qlimax Anthem 2010)
    11 Psyko Punkz - Bass Boom
    12 Wildstylez - Delay Distortion
    13 Brennan Heart - Till U Believe It
    14 Brooklyn Bounce - Club Bizarre (Headhunterz & Noisecontrollers Remix)
    15 Brennan Heart - Light The Fire
    16 Second Identity - God Of The Underworld
    17 Zany & Brennan Heart - Bang The Bass
    18 Zatox & Tatanka - Kickin' Ass
    19 Brennan Heart - Face The Enemy (Zany Remix)




    General
    Spoiler:
    Format : Matroska
    File size : 11.5 GiB
    Duration : 1h 31mn
    Overall bit rate : 18.0 Mbps
    Video #1
    ID : 1
    Format : AVC
    Format/Info : Advanced Video Codec
    Format profile : Main@L4.1
    Codec ID : V_MPEG4/ISO/AVC
    Duration : 1h 31mn
    Bit rate : 16.1 Mbps
    Nominal bit rate : 16.4 Mbps
    Width : 1 920 pixels
    Height : 1 080 pixels
    Display aspect ratio : 16:9
    Frame rate : 25.000 fps
    Resolution : 24 bits
    Audio #2
    ID : 2
    Format : DTS
    Format/Info : Digital Theater Systems
    Codec ID : A_DTS
    Duration : 1h 31mn
    Bit rate mode : Constant
    Bit rate : 1 510 Kbps
    Channel(s) : 6 channels
    Channel positions : Front: L C R, Surround: L R, LFE
    Sampling rate : 48.0 KHz
    Resolution : 16 bits
    Stream size : 991 MiB (8%)



    Kompresja RAR + 10% Danych Naprawczych
    Brak Hasła
    Plki po 1,6Gb
    Pliki można pobierać na przemian
    Rapidu - FileShark :



    Linki / Download / Mirror / Pobierz:
    Linki widoczne tylko dla zarejestrowanych użytkowników.
    Jedne konto wiele hostingów - BEZ LIMITÓW! -FileFox-


    QLIMAX: Live Registration (2011) BluRay.1080p.x264.DTS-DX

    Lista utworów:

    Spoiler:
    1 Psychedelic - Headhunterz - Qlimax 2011 Edit
    2 It's What We Are - Geck-o - Headhunterz Edit
    3 Calling - Omegatypez Feat. The Vision
    4 Melancholia - Wasted Penguinz
    5 Dream Dust - Frontliner
    6 From Within - Headhunterz - Winne Edit
    7 Power Of Your Mind - Headhunterz - 2011 Remix
    8 Midnight Skies - D-clear
    9 Tonight - Headhunterz Feat. Wildstylez & - Alpha2 Remix
    10 Hard With Style - Headhunterz
    11 We Are Posessed - Brennan Heart - Headhunterz Remix
    12 On The Go - Max Forcer & Frontliner
    13 Eternalize - Headhunterz - Hard Bass 2012 Anthem
    14 Perfect Weapon - Headhunterz & Zatox Feat. Nikk
    15 Face The Truth - B-front
    16 Headshot - Headhunterz
    17 Musical Analysis - B-front
    18 Doomed - Headhunterz - Blah Blah Blah Edit
    19 2011 Live - Qlimax




    General
    Spoiler:
    Format : Matroska
    File size : 11.4 GiB
    Duration : 1h 46mn
    Overall bit rate : 15.3 Mbps
    Video #1
    ID : 1
    Format : AVC
    Format/Info : Advanced Video Codec
    Format profile : Main@L4.1
    Codec ID : V_MPEG4/ISO/AVC
    Duration : 1h 46mn
    Bit rate : 13.5 Mbps
    Nominal bit rate : 13.8 Mbps
    Width : 1 920 pixels
    Height : 776 pixels
    Display aspect ratio : 2.474
    Frame rate : 24.000 fps
    Resolution : 24 bits
    Audio #2
    ID : 2
    Format : DTS
    Format/Info : Digital Theater Systems
    Codec ID : A_DTS
    Duration : 1h 46mn
    Bit rate mode : Constant
    Bit rate : 1 510 Kbps
    Channel(s) : 6 channels
    Channel positions : Front: L C R, Surround: L R, LFE
    Sampling rate : 48.0 KHz
    Resolution : 16 bits
    Stream size : 1.12 GiB (10%)



    Kompresja RAR + 10% Danych Naprawczych
    Brak Hasła
    Plki po 1,6Gb
    Pliki można pobierać na przemian
    Rapidu - FileShark :



    Linki / Download / Mirror / Pobierz:
    Linki widoczne tylko dla zarejestrowanych użytkowników.
    Jedne konto wiele hostingów - BEZ LIMITÓW! -FileFox-

    QLIMAX - Fate or Fortune [Limited Edition] (2012) BluRay.1080p.x264.DTS-DX

    Lista utworów:
    Spoiler:
    1/1 - Intro Frontliner - Qdance
    1/2 - I 'm The Melodyman - Frontliner
    1/3 - All In This Together - Frontliner
    1/4 - Halos - Frontliner ft. John Harris
    1/5 - Dream Dust - Frontliner
    1/6 - Rage - Technoboy - Frontliner Remix
    1/7 - On The Go - Max Enforcer & Frontliner - Qlimax 2012 Edit
    1/8 - Death Of A Demon - Frontliner ft. Nikkita
    1/9 - Symbols - Frontliner - Q-Base Open Air 2012 O.S.T.
    1/10 - Intro Brennan Heart - Qdance
    1/11 - One-Master-Blade - Brennan Heart
    1/12 - Lose My Mind - Brennan Heart & Wildstylez
    1/13 - This is not - Brennan Heart
    1/14 - Freaqshow 2012 O.S.T. - Brennan Heart
    1/15 - Life That We Dream Of - Brennan Heart
    1/16 - Hardbass Junkie - Brennan Heart
    1/17 - Van Halen is a Rockstar - Brennan Heart
    1/18 - Running Late - Brennan Heart
    1/19 - We Can Escape - Brennan Heart - Official Intents Anthem 2012
    1/20 - Never Break Me - Brennan Heart
    1/21 - he MF Point of Perfection - Brennan Heart & Headhunterz
    1/22 - Reputation Game - Brennan Heart & Wildstylez
    1/23 - Running Late - Brennan Heart - Brennan Heart & Code Black MF
    1/24 - Fit In Or Fuck Off - Brennan Heart - F.I.F.O.
    1/25 - Bang The Bass - Brennan Heart & Zany
    1/26 - Intro Adaro - Qdance
    1/27 - The Haunter of the Dark - Adaro
    1/28 - Lost in the mist - Crypsis
    1/29 - Bolivia - Gunz for hire
    1/30 - Mistress - Solutio & The I's
    1/31 - Fuck the fake shit - Artic - Adaro Remix
    1/32 - Attention - Frequencerz & E-Force
    1/33 - Natural born killers - adaro & Digital Punk
    1/34 - Masterclass - E-Force & Luna
    1/35 - Satana - Acti & Jajox
    1/36 - Kings of the underground - Gunz for hire



    General
    Spoiler:
    Format : Matroska
    File size : 11.7 GiB
    Duration : 2h 10mn
    Overall bit rate : 12.9 Mbps
    Video #1
    ID : 1
    Format : AVC
    Format/Info : Advanced Video Codec
    Format profile : Main@L4.1
    Codec ID : V_MPEG4/ISO/AVC
    Duration : 2h 10mn
    Bit rate : 11.1 Mbps
    Nominal bit rate : 11.3 Mbps
    Width : 1 920 pixels
    Height : 960 pixels
    Display aspect ratio : 2.000
    Frame rate : 24.000 fps
    Resolution : 24 bits
    Audio #2
    ID : 2
    Format : DTS
    Format/Info : Digital Theater Systems
    Codec ID : A_DTS
    Duration : 2h 10mn
    Bit rate mode : Constant
    Bit rate : 1 510 Kbps
    Channel(s) : 6 channels
    Channel positions : Front: L C R, Surround: L R, LFE
    Sampling rate : 48.0 KHz
    Resolution : 16 bits
    Stream size : 1.37 GiB (12%)



    Kompresja RAR + 10% Danych Naprawczych
    Brak Hasła
    Plki po 1,6Gb
    Pliki można pobierać na przemian
    Rapidu - FileShark :



    Linki / Download / Mirror / Pobierz:
    Linki widoczne tylko dla zarejestrowanych użytkowników.
    Jedne konto wiele hostingów - BEZ LIMITÓW! -FileFox-

    Qlimax: Immortal Essence (2013) BluRay.1080p.x264.DTS-DX

    Lista utworów:

    Spoiler:
    01. ACTI - Peacock
    02. Code Black - Pandora
    03. Max Enforcer - Lost in Paradise
    04. Wasted Penguinz & Toneshifterz - Together
    05. Brennan Heart & Jonathan Mendelsohn - Imaginary
    06. Code Black - Feels Good
    07. Code Black & Brennan Heart - Tonight Will Never Die
    08. Wasted Penguinz & Rebourne - Sorrow
    09. Psyko Punkz - Trippy Hippie
    10. Toneshifterz feat Chris Madin - Parachutes
    11. Tuneboy - XY
    12. Outbreak - The Nightmare Factory
    13. Code Black - I.N. C.O.N.T.R.O.L.
    14. Gunz for Hire feat. Ruffian - Immortal (Qlimax Anthem 2013)
    15. Coone feat.Kritikal - Zombie Killer
    16. Alpha2 - Unleashed Once Again
    17. Atmozfears & Energyzed - The Harvest
    18. Ran-D & Digital Punk - Rebel to the Grave
    19. Wild Motherfuckers - Natural Born Raver
    20. Art Of Fighters & Mad Dog - Badass



    General
    Spoiler:
    Format : Matroska
    File size : 11.4 GiB
    Duration : 2h 14mn
    Overall bit rate : 12.1 Mbps
    Video #1
    ID : 1
    Format : AVC
    Format/Info : Advanced Video Codec
    Format profile : Main@L4.1
    Codec ID : V_MPEG4/ISO/AVC
    Duration : 2h 14mn
    Bit rate : 10.4 Mbps
    Nominal bit rate : 10.6 Mbps
    Width : 1 916 pixels
    Height : 816 pixels
    Display aspect ratio : 2.35:1
    Frame rate : 24.000 fps
    Resolution : 24 bits
    Audio #2
    ID : 2
    Format : DTS
    Format/Info : Digital Theater Systems
    Codec ID : A_DTS
    Duration : 2h 14mn
    Bit rate mode : Constant
    Bit rate : 1 510 Kbps
    Channel(s) : 6 channels
    Channel positions : Front: L C R, Surround: L R, LFE
    Sampling rate : 48.0 KHz
    Resolution : 16 bits
    Stream size : 1.42 GiB (12%)



    Kompresja RAR + 10% Danych Naprawczych
    Brak Hasła
    Plki po 1,6Gb
    Pliki można pobierać na przemian
    Rapidu - FileShark :



    Linki / Download / Mirror / Pobierz:
    Linki widoczne tylko dla zarejestrowanych użytkowników.
    Jedne konto wiele hostingów - BEZ LIMITÓW! -FileFox-

Podobne wątki

  1. Odpowiedzi: 0
    Ostatni post / autor: 03-04-2012, 12:01
  2. Qlimax 2009
    Przez samziom w dziale Kosz
    Odpowiedzi: 0
    Ostatni post / autor: 06-12-2011, 14:29
  3. Odpowiedzi: 0
    Ostatni post / autor: 25-04-2009, 21:07
  4. Odpowiedzi: 0
    Ostatni post / autor: 19-12-2008, 10:56

Uprawnienia umieszczania postów

  • Nie możesz zakładać nowych tematów
  • Nie możesz pisać wiadomości
  • Nie możesz dodawać załączników
  • Nie możesz edytować swoich postów
  •