Pokaż wyniki od 1 do 2 z 2

Wątek: Alone in the Dark (2005 - 2008)

  
  1. #1
    Użytkownik Array
    Dołączył
    Jun 2015
    Posty
    740
    Podziękował/a
    0
    Otrzymał/a podziękowań 11
    Siła reputacji
    77

    Mix Alone in the Dark (2005 - 2008)

    Alone in the Dark Wyspa cienia / Alone in the Dark (2005) BluRay.1080p.x264.DTS-DX Napisy PL



    reżyseria: Uwe Boll
    scenariusz: Elan Mastai Peter Scheerer Michael Roesch
    gatunek: Horror Akcja
    produkcja: Kanada Niemcy USA
    premiera: 28 stycznia 2005 (świat)

    Edward Carnby, prowadząc śledztwo w sprawie tajemniczej śmierci swojego przyjaciela, dociera do tajemniczej Wyspy Cienia.

    General
    Spoiler:
    Format : Matroska
    File size : 11.0 GiB
    Duration : 1h 39mn
    Overall bit rate : 15.7 Mbps
    Video #1
    ID : 1
    Format : AVC
    Format/Info : Advanced Video Codec
    Format profile : Main@L4.1
    Codec ID : V_MPEG4/ISO/AVC
    Duration : 1h 39mn
    Bit rate : 13.9 Mbps
    Nominal bit rate : 14.6 Mbps
    Width : 1 920 pixels
    Height : 1 080 pixels
    Display aspect ratio : 16:9
    Frame rate : 23.976 fps
    Audio #2
    ID : 2
    Format : DTS
    Format/Info : Digital Theater Systems
    Codec ID : A_DTS
    Duration : 1h 39mn
    Bit rate mode : Constant
    Bit rate : 1 510 Kbps
    Channel(s) : 6 channels
    Channel positions : Front: L C R, Surround: L R, LFE
    Sampling rate : 48.0 KHz
    Resolution : 16 bits
    Stream size : 1.05 GiB (10%)
    Title : English DTS 5.1 1510 Kbps
    Text #3
    ID : 3
    Format : SSA
    Codec ID : S_TEXT/SSA
    Codec ID/Info : Sub Station Alpha
    Title : Polish SSA
    Language : Polish







    Subtitles: PL (SSA) wmuxowane i osobno
    Source A/V : 1080p.BDRemux
    Kompresja RAR + 10% Danych Naprawczych
    Brak Hasła
    Plki po 1,2Gb
    Pliki można pobierać na przemian

    Rapidu - FileShark :



    Linki / Download / Mirror / Pobierz:
    Linki widoczne tylko dla zarejestrowanych użytkowników.


    Alone in the Dark II (2008) BluRay.1080p.x264.DTS-DX Napisy PL



    reżyseria: Peter Scheerer Michael Roesch
    scenariusz: Peter Scheerer Michael Roesch
    gatunek: Horror Akcja
    produkcja: USA
    premiera: wrzesień 2008 (świat)

    Scenariusz powstał na podstawie ostatniej części gry, która pojawiła się na rynku. Napisali go Michael Roesch i Peter Scheerer, twórcy fabuły pierwszego filmu.
    Sam film opowiada historię Edwarda Carnby, który tworzy oddział łowców wiedźm, aby pojmać najgorszą z nich, Elisabeth Dexter.

    General
    Spoiler:
    Format : Matroska
    File size : 10.6 GiB
    Duration : 1h 31mn
    Overall bit rate : 16.6 Mbps
    Video #1
    ID : 1
    Format : AVC
    Format/Info : Advanced Video Codec
    Format profile : Main@L4.1
    Codec ID : V_MPEG4/ISO/AVC
    Duration : 1h 31mn
    Bit rate : 14.7 Mbps
    Nominal bit rate : 16.0 Mbps
    Width : 1 920 pixels
    Height : 816 pixels
    Display aspect ratio : 2.35:1
    Frame rate : 23.976 fps
    Audio #2
    ID : 2
    Format : DTS
    Format/Info : Digital Theater Systems
    Codec ID : A_DTS
    Duration : 1h 31mn
    Bit rate mode : Constant
    Bit rate : 1 510 Kbps
    Channel(s) : 6 channels
    Channel positions : Front: L C R, Surround: L R, LFE
    Sampling rate : 48.0 KHz
    Resolution : 16 bits
    Stream size : 989 MiB (9%)
    Title : English DTS 5.1 1510 Kbps
    Text #3
    ID : 3
    Format : SSA
    Codec ID : S_TEXT/SSA
    Codec ID/Info : Sub Station Alpha
    Title : Polish SSA
    Language : Polish







    Subtitles: PL (SSA) wmuxowane i Ososbno
    Source A/V : 1080p.BDRemux
    Kompresja RAR + 10% Danych Naprawczych
    Brak Hasła
    Plki po 1,2Gb
    Pliki można pobierać na przemian

    Rapidu - FileShark :



    Linki / Download / Mirror / Pobierz:
    Linki widoczne tylko dla zarejestrowanych użytkowników.
    Ostatnio edytowane przez Demonxx ; 27-01-2016 o 09:27

  2. #2
    Użytkownik Array
    Dołączył
    Jun 2015
    Posty
    740
    Podziękował/a
    0
    Otrzymał/a podziękowań 11
    Siła reputacji
    77

    Domyślnie

    Alone in the Dark Wyspa cienia / Alone in the Dark (2005) BluRay.720p.x264.DTS-DX Napisy PL
    Spoiler:



    reżyseria: Uwe Boll
    scenariusz: Elan Mastai Peter Scheerer Michael Roesch
    gatunek: Horror Akcja
    produkcja: Kanada Niemcy USA
    premiera: 28 stycznia 2005 (świat)


    Edward Carnby, prowadząc śledztwo w sprawie tajemniczej śmierci swojego przyjaciela, dociera do tajemniczej Wyspy Cienia.


    General
    Spoiler:
    Format : Matroska
    File size : 4.34 GiB
    Duration : 1h 39mn
    Overall bit rate : 6 222 Kbps
    Video #1
    ID : 1
    Format : AVC
    Format/Info : Advanced Video Codec
    Format profile : Main@L3.1
    Codec ID : V_MPEG4/ISO/AVC
    Duration : 1h 39mn
    Bit rate : 4 588 Kbps
    Nominal bit rate : 4 765 Kbps
    Width : 1 280 pixels
    Height : 720 pixels
    Display aspect ratio : 16:9
    Frame rate : 23.976 fps
    Audio #2
    ID : 2
    Format : DTS
    Codec ID : A_DTS
    Duration : 1h 39mn
    Bit rate mode : Constant
    Bit rate : 1 510 Kbps
    Channel(s) : 6 channels
    Language : English






    Subtitles: PL (SSA) osobno
    Source A/V : 1080p.BDRemux
    Kompresja RAR + 10% Danych Naprawczych
    Brak Hasła
    Plki po 1,6Gb
    Pliki można pobierać na przemian

    Rapidu - FileShark :



    Linki / Download / Mirror / Pobierz:
    Linki widoczne tylko dla zarejestrowanych użytkowników.


    Alone in the Dark II (2008) BluRay.720p.x264.DTS-DX Napisy PL

    Spoiler:


    reżyseria: Peter Scheerer Michael Roesch
    scenariusz: Peter Scheerer Michael Roesch
    gatunek: Horror Akcja
    produkcja: USA
    premiera: wrzesień 2008 (świat)


    Scenariusz powstał na podstawie ostatniej części gry, która pojawiła się na rynku. Napisali go Michael Roesch i Peter Scheerer, twórcy fabuły pierwszego filmu.
    Sam film opowiada historię Edwarda Carnby, który tworzy oddział łowców wiedźm, aby pojmać najgorszą z nich, Elisabeth Dexter.


    General
    Spoiler:
    Format : Matroska
    File size : 4.24 GiB
    Duration : 1h 31mn
    Overall bit rate : 6 627 Kbps
    Video #1
    ID : 1
    Format : AVC
    Format/Info : Advanced Video Codec
    Format profile : Main@L3.1
    Codec ID : V_MPEG4/ISO/AVC
    Duration : 1h 31mn
    Bit rate : 4 985 Kbps
    Nominal bit rate : 5 328 Kbps
    Width : 1 280 pixels
    Height : 544 pixels
    Display aspect ratio : 2.35:1
    Frame rate : 23.976 fps
    Audio #2
    ID : 2
    Format : DTS
    Codec ID : A_DTS
    Duration : 1h 31mn
    Bit rate mode : Constant
    Bit rate : 1 510 Kbps
    Channel(s) : 6 channel
    Channel positions : Front: L C R, Surround: L R, LFE
    Sampling rate : 48.0 KHz
    Resolution : 16 bits
    Stream size : 989 MiB (23%)
    Language : English






    Subtitles: PL (SSA) Ososbno
    Source A/V : 1080p.BDRemux
    Kompresja RAR + 10% Danych Naprawczych
    Brak Hasła
    Plki po 1,6Gb
    Pliki można pobierać na przemian

    Rapidu - FileShark :



    Linki / Download / Mirror / Pobierz:
    Linki widoczne tylko dla zarejestrowanych użytkowników.
    Ostatnio edytowane przez Demonxx ; 28-01-2016 o 17:11

Podobne wątki

  1. Mroczny rycerz / The Dark Knight (2008)
    Przez Jaculek w dziale AVI & DIVX
    Odpowiedzi: 15
    Ostatni post / autor: 30-07-2016, 11:07
  2. Alone in the Dark Wyspa cienia / Alone in the Dark (2005)
    Przez Demonxx w dziale DVD/Blu-ray - Filmy
    Odpowiedzi: 1
    Ostatni post / autor: 28-01-2016, 16:53
  3. Mroczny rycerz / Dark Knight, The (2008)
    Przez *Motylek* w dziale DVD/Blu-ray - Filmy
    Odpowiedzi: 1
    Ostatni post / autor: 05-11-2015, 14:49
  4. Perfect Dark Zero (2005)
    Przez juankisas w dziale Xbox & Xbox 360
    Odpowiedzi: 0
    Ostatni post / autor: 01-08-2014, 19:31

Uprawnienia umieszczania postów

  • Nie możesz zakładać nowych tematów
  • Nie możesz pisać wiadomości
  • Nie możesz dodawać załączników
  • Nie możesz edytować swoich postów
  •  
Page Rank Check