Pokaż wyniki od 1 do 1 z 1

Wątek: Hellboy (2004-2008)

  
  1. #1
    Użytkownik Array
    Dołączył
    Jun 2015
    Posty
    740
    Podziękował/a
    0
    Otrzymał/a podziękowań 11
    Siła reputacji
    76

    Hellboy (2004-2008)

    Hellboy I (2004) director's.cut 1080p.Bluray.x264.AC3-KRYL 60fps / Napisy PL



    reżyseria: Guillermo del Toro
    scenariusz: Guillermo del Toro
    gatunek: Fantasy Akcja
    produkcja: USA
    premiera: 17 września 2004 (Polska) 30 marca 2004 (świat)


    Ekranizacja komiksu. Hellboy, przywołany z piekieł przez nazistów syn szatana,
    wychowuje się na bohatera narodu pod okiem amerykańskiego profesora.
    Po 40 latach musi stawić czoła ludziom, którzy powołali go do istnienia.

    General
    Spoiler:
    Format : Matroska
    File size : 14.0 GiB
    Duration : 2h 12mn
    Overall bit rate : 15.2 Mbps
    Video #1
    ID : 1
    Format : AVC
    Format/Info : Advanced Video Codec
    Format profile : High@L4.1
    Codec ID : V_MPEG4/ISO/AVC
    Duration : 2h 12mn
    Bit rate : 14.2 Mbps
    Width : 1 920 pixels
    Height : 1 040 pixels
    Display aspect ratio : 16:9
    Frame rate : 59.940 fps
    Resolution : 24 bits
    Audio #2
    ID : 2
    Format : AC-3
    Format/Info : Audio Coding 3
    Codec ID : A_AC3
    Duration : 2h 12mn
    Bit rate mode : Constant
    Bit rate : 640 Kbps
    Channel(s) : 6 channels
    Channel positions : Front: L C R, Surround: L R, LFE
    Sampling rate : 48.0 KHz
    Stream size : 606 MiB (4%)
    Title : AC3 5.1
    Langue : English
    Text #3
    ID : 3
    Format : SSA
    Codec ID : S_TEXT/SSA
    Codec ID/Info : Sub Station Alpha
    Title : SSA
    Language : Polish
    Text #4
    ID : 4
    Format : UTF-8
    Codec ID : S_TEXT/UTF8
    Codec ID/Info : UTF-8 Plain Text
    Title : SRT
    Language : Polish






    Subtitles: PL (SSA/SRT) wmuxowane i ososbno
    Source A/V : BD

    Kompresja RAR + 10% Danych Naprawczych
    Brak Hasła
    Plki po 1,6Gb
    Pliki można pobierać na przemian

    Rapidu - FileShark :



    Linki / Download / Mirror / Pobierz:
    Linki widoczne tylko dla zarejestrowanych użytkowników.
    Hellboy II The Golden Army - Hellboy II Złota Armia (2008) 1080p.Bluray.x264.AC3-KRYL 60fps / Napisy PL



    reżyseria: Guillermo del Toro
    scenariusz: Guillermo del Toro
    gatunek: Fantasy Akcja
    produkcja: Niemcy USA
    premiera: 5 września 2008 (Polska) 28 czerwca 2008 (świat)


    Hellboy musi stawić czoła zbudzonej przez okrutnego księcia armii niepokonanych bestii.
    Pomogą mu w tym przyjaciele o paranormalnych zdolnościach.

    General
    Spoiler:
    Format : Matroska
    File size : 11.3 GiB
    Duration : 1h 59mn
    Overall bit rate : 13.5 Mbps
    Video #1
    ID : 1
    Format : AVC
    Format/Info : Advanced Video Codec
    Format profile : High@L4.1
    Codec ID : V_MPEG4/ISO/AVC
    Duration : 1h 59mn
    Bit rate : 12.6 Mbps
    Width : 1 920 pixels
    Height : 1 040 pixels
    Display aspect ratio : 16:9
    Frame rate : 59.940 fps
    Resolution : 24 bits
    Audio #2
    ID : 2
    Format : AC-3
    Format/Info : Audio Coding 3
    Codec ID : A_AC3
    Duration : 1h 59mn
    Bit rate mode : Constant
    Bit rate : 640 Kbps
    Channel(s) : 6 channels
    Channel positions : Front: L C R, Surround: L R, LFE
    Sampling rate : 48.0 KHz
    Stream size : 548 MiB (5%)
    Title : AC3
    Langue : English
    Text #3
    ID : 3
    Format : SSA
    Codec ID : S_TEXT/SSA
    Codec ID/Info : Sub Station Alpha
    Title : SSA
    Language : Polish
    Text #4
    ID : 4
    Format : UTF-8
    Codec ID : S_TEXT/UTF8
    Codec ID/Info : UTF-8 Plain Text
    Title : SRT
    Language : Polish






    Subtitles: PL (SSA/SRT) wmuxowane i ososbno
    Source A/V : BD

    Kompresja RAR + 10% Danych Naprawczych
    Brak Hasła
    Plki po 1,6Gb
    Pliki można pobierać na przemian

    Rapidu - FileShark :



    Linki / Download / Mirror / Pobierz:
    Linki widoczne tylko dla zarejestrowanych użytkowników.
    Ostatnio edytowane przez Demonxx ; 15-02-2016 o 15:06

Podobne wątki

  1. Odpowiedzi: 4
    Ostatni post / autor: 14-03-2016, 10:17
  2. HELLBOY (2004) lektor PL
    Przez axk w dziale AVI & DIVX
    Odpowiedzi: 6
    Ostatni post / autor: 14-03-2016, 10:15
  3. Odpowiedzi: 2
    Ostatni post / autor: 01-11-2008, 08:11

Uprawnienia umieszczania postów

  • Nie możesz zakładać nowych tematów
  • Nie możesz pisać wiadomości
  • Nie możesz dodawać załączników
  • Nie możesz edytować swoich postów
  •  
Page Rank Check