Pokaż wyniki od 1 do 2 z 2

Wątek: Roki / Rocky (1976 -2006)

  
  1. #1
    Użytkownik Array
    Dołączył
    Jun 2015
    Posty
    740
    Podziękował/a
    0
    Otrzymał/a podziękowań 11
    Siła reputacji
    76

    Domyślnie Roki / Rocky (1976 -2006)

    Roki / Rocky (1976) MULTi.1080p.BluRay.x264.DTS-HDMA.DTS.AC3-DX
    Lektor i Napisy PL




    reżyseria: John G. Avildsen
    scenariusz: Sylvester Stallone
    gatunek: Dramat Sportowy
    produkcja: USA
    premiera: 21 listopada 1976 (świat)


    Historia Rocky'ego Balboa, boksera-amatora, któremu nadarza się okazja stoczenia walki o tytuł mistrza świata wagi ciężkiej.

    GENERAL :
    Spoiler:

    Format : Matroska
    File size : 10.8 GiB
    Duration : 1h 59mn
    Overall bit rate : 12.9 Mbps
    Video #1
    ID : 1
    Format : AVC
    Format profile : Main@L4.0
    Nominal bit rate : 7 765 Kbps
    Width : 1 920 pixels
    Height : 1 040 pixels
    Display aspect ratio : 16:9
    Frame rate : 23.976 fps
    Audio #2
    Format : DTS
    Format profile : MA
    Bit rate mode : Variable
    Channel(s) : 6 channels
    Title : English DTS-HD MA 5.1 3468 Kbps
    Audio #3
    Format : DTS
    Bit rate : 1 510 Kbps
    Channel(s) : 6 channels
    Title : English DTS 5.1 1510 Kbps
    Language : English
    Audio #4
    Format : AC-3
    Bit rate : 192 Kbps
    Channel(s) : 2 channels
    Title : Polish AC3 2.0 196 Kbps
    Language : Polish
    Text #5
    Format : SSA
    Title : Polish SSA
    Language : Polish
    Text #6
    Format : UTF-8
    Title : Polish SRT
    Language : Polish





    Subtitles: PL (SSA/SRT) wmuxowane i ososbno
    Source A/V : BD

    Kompresja RAR + 10% Danych Naprawczych
    Brak Hasła
    Plki po 1,2Gb
    Pliki można pobierać na przemian

    Rapidu - FileShark :


    Linki / Download / Mirror / Pobierz:
    Linki widoczne tylko dla zarejestrowanych użytkowników.

    Roki II / Rocky II (1979) MULTi.1080p.BluRay.x264.DTS-HDMA.DTS.AC3-DX
    Lektor i Napisy PL




    reżyseria: Sylvester Stallone
    scenariusz: Sylvester Stallone
    gatunek: Dramat Sportowy
    produkcja: USA
    premiera: 15 czerwca 1979 (świat)


    Rocky poślubia Adrian i na rzecz rodziny postanawia porzucić boks. Tymczasem jego przeciwnik, Apollo, pragnie rewanżu za nierozstrzygniętą poprzednią walkę.

    GENERAL :
    Spoiler:

    Format : Matroska
    File size : 10.9 GiB
    Duration : 1h 59mn
    Overall bit rate : 13.1 Mbps
    Video #1
    Format : AVC
    Format profile : Main@L4.0
    Nominal bit rate : 7 868 Kbps
    Width : 1 920 pixels
    Height : 1 040 pixels
    Display aspect ratio : 16:9
    Frame rate : 23.976 fps
    Audio #2
    Format : DTS
    Format profile : MA
    Bit rate mode : Variable
    Channel(s) : 6 channels
    Title : English DTS-HDMA 5.1 3453 Kbps
    Language : English
    Audio #3
    Format : DTS
    Bit rate : 1 510 Kbps
    Channel(s) : 6 channels
    Title : English DTS 5.1 1510 Kbps
    Language : English
    Audio #4
    Format : AC-3
    Bit rate : 448 Kbps
    Channel(s) : 6 channels
    Title : Polish AC3 5.1 448 Kbps
    Language : Polish
    Text #5
    Format : SSA
    Title : Polish SSA
    Language : Polish
    Text #6
    Format : UTF-8
    Title : Polish SRT
    Language : Polish





    Subtitles: PL (SSA/SRT) wmuxowane i ososbno
    Source A/V : BD

    Kompresja RAR + 10% Danych Naprawczych
    Brak Hasła
    Plki po 1,2Gb
    Pliki można pobierać na przemian

    Rapidu - FileShark :


    Linki / Download / Mirror / Pobierz:
    Linki widoczne tylko dla zarejestrowanych użytkowników.

    Roki III / Rocky III (1982) MULTi.1080p.BluRay.x264.DTS-HDMA.DTS.AC3-DX
    Lektor i Napisy PL




    reżyseria: Sylvester Stallone
    scenariusz: Sylvester Stallone
    gatunek: Dramat Sportowy
    produkcja: USA
    premiera: 28 maja 1982 (świat)


    Rocky zostaje brutalnie znokautowany, a jego trener Mickey umiera. Apollo oferuje mu pomoc w odzyskaniu ducha walki.

    GENERAL :
    Spoiler:

    Format : Matroska
    File size : 9.79 GiB
    Duration : 1h 39mn
    Overall bit rate : 14.1 Mbps
    Video #1
    Format : AVC
    Format profile : Main@L4.0
    Nominal bit rate : 9 944 Kbps
    Width : 1 920 pixels
    Height : 1 040 pixels
    Display aspect ratio : 16:9
    Frame rate : 23.976 fps
    Audio #2
    Format : DTS
    Format profile : MA
    Bit rate mode : Variable
    Channel(s) : 6 channels
    Title : English DTS-HDMA 5.1 2285 Kbps
    Language : English
    Audio #3
    Format : DTS
    Bit rate : 1 510 Kbps
    Channel(s) : 6 channels
    Title : English DTS 5.1 1510 Kbps
    Language : English
    Audio #4
    Format : AC-3
    Bit rate : 448 Kbps
    Channel(s) : 6 channels
    Title : Polish AC3 5.1 448 Kbps
    Language : Polish
    Text #5
    Format : SSA
    Title : Polish SSA
    Language : Polish
    Text #6
    Format : UTF-8
    Title : Polish SRT
    Language : Polish





    Subtitles: PL (SSA/SRT) wmuxowane i ososbno
    Source A/V : BD

    Kompresja RAR + 10% Danych Naprawczych
    Brak Hasła
    Plki po 1,2Gb
    Pliki można pobierać na przemian

    Rapidu - FileShark :


    Linki / Download / Mirror / Pobierz:
    Linki widoczne tylko dla zarejestrowanych użytkowników.

    Roki IV / Rocky IV (1985) MULTi.1080p.BluRay.x264.DTS-HDMA.DTS.AC3-DX
    Lektor i Napisy PL




    reżyseria: Sylvester Stallone
    scenariusz: Sylvester Stallone
    gatunek: Dramat Sportowy
    produkcja: USA
    premiera: 21 listopada 1985 (świat)


    Rocky wyjeżdża do ZSRR, by stoczyć walkę z tamtejszym mistrzem i pomścić swojego zmarłego przyjaciela.

    GENERAL :
    Spoiler:

    Format : Matroska
    File size : 11.2 GiB
    Duration : 1h 31mn
    Overall bit rate : 17.5 Mbps
    Video #1
    Format : AVC
    Format profile : Main@L4.1
    Nominal bit rate : 13.1 Mbps
    Width : 1 920 pixels
    Height : 1 040 pixels
    Display aspect ratio : 16:9
    Frame rate : 23.976 fps
    Audio #2
    Format : DTS
    Format profile : MA
    Bit rate mode : Variable
    Channel(s) : 6 channels
    Title : English DTS-HDMA 5.1 2580 Kbps
    Language : English
    Audio #3
    Format : DTS
    Bit rate : 1 510 Kbps
    Channel(s) : 6 channels
    Title : English DTS 5.1 1510 Kbps
    Language : English
    Audio #4
    Format : AC-3
    Bit rate : 448 Kbps
    Channel(s) : 6 channels
    Title : Polish AC3 5.1 448 Kbps
    Language : Polish
    Text #5
    Format : SSA
    Title : Polish SSA
    Language : Polish
    Text #6
    Format : UTF-8
    Title : Polish SRT
    Language : Polish





    Subtitles: PL (SSA/SRT) wmuxowane i ososbno
    Source A/V : BD

    Kompresja RAR + 10% Danych Naprawczych
    Brak Hasła
    Plki po 1,2Gb
    Pliki można pobierać na przemian

    Rapidu - FileShark :


    Linki / Download / Mirror / Pobierz:
    Linki widoczne tylko dla zarejestrowanych użytkowników.

    Roki V / Rocky V (1990) MULTi.1080p.BluRay.x264.DTS-HDMA.DTS.AC3-DX
    Lektor i Napisy PL




    reżyseria: John G. Avildsen
    scenariusz: Sylvester Stallone
    gatunek: Dramat Sportowy
    produkcja: USA
    premiera: 16 listopada 1990 (świat)


    Rocky traci majątek i ze względów zdrowotnych rezygnuje z boksu. Postanawia zostać trenerem dobrze zapowiadającego się Tommy'ego Gunna.

    GENERAL :
    Spoiler:

    Format : Matroska
    File size : 11.4 GiB
    Duration : 1h 44mn
    Overall bit rate : 15.7 Mbps
    Video #1
    Format : AVC
    Format profile : Main@L4.1
    Nominal bit rate : 10.5 Mbps
    Width : 1 920 pixels
    Height : 1 040 pixels
    Display aspect ratio : 16:9
    Frame rate : 23.976 fps
    Audio #2
    Format : DTS
    Format profile : MA
    Bit rate mode : Variable
    Channel(s) : 6 channels
    Title : English DTS-HDMA 5.1 3294 Kbps
    Language : English
    Audio #3
    Format : DTS
    Bit rate : 1 510 Kbps
    Channel(s) : 6 channels
    Title : English DTS 5.1 1510 Kbps
    Language : English
    Audio #4
    Format : AC-3
    Bit rate : 448 Kbps
    Channel(s) : 6 channels
    Title : Polish AC3 5.1 448 Kbps
    Language : Polish
    Text #5
    Format : SSA
    Title : Polish SSA
    Language : Polish
    Text #6
    Format : UTF-8
    Title : Polish SRT
    Language : Polish





    Subtitles: PL (SSA/SRT) wmuxowane i ososbno
    Source A/V : BD

    Kompresja RAR + 10% Danych Naprawczych
    Brak Hasła
    Plki po 1,2Gb
    Pliki można pobierać na przemian

    Rapidu - FileShark :


    Linki / Download / Mirror / Pobierz:
    Linki widoczne tylko dla zarejestrowanych użytkowników.

    Roki Balboa / Rocky Balboa (2006) MULTi.1080p.BluRay.x264.DTS-HDMA.DTS.AC3-DX
    Lektor i Napisy PL




    reżyseria: Sylvester Stallone
    scenariusz: Sylvester Stallone
    gatunek: Dramat Sportowy
    produkcja: USA
    premiera: 9 marca 2007 (Polska) 20 grudnia 2006 (świat)


    Pięćdziesięcioletni Rocky wznawia treningi, by stoczyć pokazową walkę z aktualnym mistrzem świata w boksie.

    GENERAL :
    Spoiler:

    Format : Matroska
    File size : 10.8 GiB
    Duration : 1h 41mn
    Overall bit rate : 15.2 Mbps
    Video #1
    Format : AVC
    Format profile : Main@L4.1
    Nominal bit rate : 11.1 Mbps
    Width : 1 920 pixels
    Height : 1 040 pixels
    Display aspect ratio : 16:9
    Frame rate : 23.976 fps
    Audio #2
    Format : DTS
    Format profile : MA
    Bit rate mode : Variable
    Channel(s) : 6 channels
    Title : English DTS-HDMA 5.1 2268 Kbps
    Language : English
    Audio #3
    Format : DTS
    Bit rate : 1 510 Kbps
    Channel(s) : 6 channels
    Title : English DTS 5.1 1510 Kbps
    Language : English
    Audio #4
    Format : AC-3
    Bit rate : 448 Kbps
    Channel(s) : 6 channels
    Title : Polish AC3 5.1 448 Kbps
    Language : Polish
    Text #5
    Format : SSA
    Title : Polish SSA
    Language : Polish
    Text #6
    Format : UTF-8
    Title : Polish SRT
    Language : Polish





    Subtitles: PL (SSA/SRT) wmuxowane i ososbno
    Source A/V : BD

    Kompresja RAR + 10% Danych Naprawczych
    Brak Hasła
    Plki po 1,2Gb
    Pliki można pobierać na przemian

    Rapidu - FileShark :


    Linki / Download / Mirror / Pobierz:
    Linki widoczne tylko dla zarejestrowanych użytkowników.

  2. #2
    Użytkownik Array
    Dołączył
    Jun 2015
    Posty
    740
    Podziękował/a
    0
    Otrzymał/a podziękowań 11
    Siła reputacji
    76

    Domyślnie

    Roki / Rocky (1976) MULTi.720p.BluRay.x264.DTS.AC3-DX
    Lektor i Napisy PL


    Spoiler:


    reżyseria: John G. Avildsen
    scenariusz: Sylvester Stallone
    gatunek: Dramat Sportowy
    produkcja: USA
    premiera: 21 listopada 1976 (świat)


    Historia Rocky'ego Balboa, boksera-amatora, któremu nadarza się okazja stoczenia walki o tytuł mistrza świata wagi ciężkiej.


    GENERAL :
    Spoiler:
    Format : Matroska
    File size : 5.62 GiB
    Duration : 1h 59mn
    Overall bit rate : 6 732 Kbps
    Video #1
    ID : 1
    Format : AVC
    Format/Info : Advanced Video Codec
    Format profile : Main@L3.1
    Codec ID : V_MPEG4/ISO/AVC
    Duration : 1h 59mn
    Bit rate : 4 896 Kbps
    Nominal bit rate : 5 065 Kbps
    Width : 1 280 pixels
    Height : 688 pixels
    Display aspect ratio : 1.860
    Frame rate : 23.976 fps
    Audio #2
    ID : 2
    Format : AC-3
    Format/Info : Audio Coding 3
    Codec ID : A_AC3
    Duration : 1h 59mn
    Bit rate mode : Constant
    Bit rate : 192 Kbps
    Channel(s) : 2 channels
    Title : Polish AC3 2.0 196 Kbps
    Language : Polish
    Audio #3
    ID : 3
    Format : DTS
    Format/Info : Digital Theater Systems
    Codec ID : A_DTS
    Duration : 1h 59mn
    Bit rate mode : Constant
    Bit rate : 1 510 Kbps
    Channel(s) : 6 channels
    Channel positions : Front: L C R, Surround: L R, LFE
    Sampling rate : 48.0 KHz
    Resolution : 24 bits
    Stream size : 1.26 GiB (22%)
    Title : English DTS 5.1 1510 Kbps
    Text #4
    ID : 4
    Format : SSA
    Codec ID : S_TEXT/SSA
    Codec ID/Info : Sub Station Alpha
    Title : Polish SSA
    Language : Polish
    Text #5
    ID : 5
    Format : UTF-8
    Codec ID : S_TEXT/UTF8
    Codec ID/Info : UTF-8 Plain Text
    Title : Polish SRT
    Language : Polish






    Subtitles: PL (SSA/SRT) wmuxowane i ososbno
    Source A/V : BD

    Kompresja RAR + 10% Danych Naprawczych
    Brak Hasła
    Plki po 1,6Gb
    Pliki można pobierać na przemian

    Rapidu - FileShark :



    Linki / Download / Mirror / Pobierz:
    Linki widoczne tylko dla zarejestrowanych użytkowników.


    Roki II / Rocky II (1979) MULTi.720p.BluRay.x264.DTS.AC3-DX
    Lektor i Napisy PL


    Spoiler:


    reżyseria: Sylvester Stallone
    scenariusz: Sylvester Stallone
    gatunek: Dramat Sportowy
    produkcja: USA
    premiera: 15 czerwca 1979 (świat)


    Rocky poślubia Adrian i na rzecz rodziny postanawia porzucić boks. Tymczasem jego przeciwnik, Apollo, pragnie rewanżu za nierozstrzygniętą poprzednią walkę.


    GENERAL :
    Spoiler:
    Format : Matroska
    File size : 5.60 GiB
    Duration : 1h 59mn
    Overall bit rate : 6 725 Kbps
    Video #1
    ID : 1
    Format : AVC
    Format/Info : Advanced Video Codec
    Format profile : Main@L3.1
    Codec ID : V_MPEG4/ISO/AVC
    Duration : 1h 59mn
    Bit rate : 4 634 Kbps
    Nominal bit rate : 4 827 Kbps
    Width : 1 280 pixels
    Height : 688 pixels
    Display aspect ratio : 1.860
    Frame rate : 23.976 fps
    Audio #2
    ID : 2
    Format : AC-3
    Format/Info : Audio Coding 3
    Codec ID : A_AC3
    Duration : 1h 59mn
    Bit rate mode : Constant
    Bit rate : 448 Kbps
    Channel(s) : 6 channels
    Title : Polish AC3 5.1 448 Kbps
    Language : Polish
    Audio #3
    ID : 3
    Format : DTS
    Format/Info : Digital Theater Systems
    Codec ID : A_DTS
    Duration : 1h 59mn
    Bit rate mode : Constant
    Bit rate : 1 510 Kbps
    Channel(s) : 6 channels
    Channel positions : Front: L C R, Surround: L R, LFE
    Sampling rate : 48.0 KHz
    Resolution : 24 bits
    Stream size : 1.26 GiB (22%)
    Title : English DTS 5.1 1509
    Text #4
    ID : 4
    Format : SSA
    Codec ID : S_TEXT/SSA
    Codec ID/Info : Sub Station Alpha
    Title : Polish SSA
    Language : Polish
    Text #5
    ID : 5
    Format : UTF-8
    Codec ID : S_TEXT/UTF8
    Codec ID/Info : UTF-8 Plain Text
    Title : Polish SRT
    Language : Polish






    Subtitles: PL (SSA/SRT) wmuxowane i ososbno
    Source A/V : BD

    Kompresja RAR + 10% Danych Naprawczych
    Brak Hasła
    Plki po 1,6Gb
    Pliki można pobierać na przemian

    Rapidu - FileShark :



    Linki / Download / Mirror / Pobierz:
    Linki widoczne tylko dla zarejestrowanych użytkowników.


    Roki III / Rocky III (1982) MULTi.720p.BluRay.x264.DTS.AC3-DX
    Lektor i Napisy PL


    Spoiler:


    reżyseria: Sylvester Stallone
    scenariusz: Sylvester Stallone
    gatunek: Dramat Sportowy
    produkcja: USA
    premiera: 28 maja 1982 (świat)


    Rocky zostaje brutalnie znokautowany, a jego trener Mickey umiera. Apollo oferuje mu pomoc w odzyskaniu ducha walki.


    GENERAL :
    Spoiler:
    Format : Matroska
    File size : 5.42 GiB
    Duration : 1h 39mn
    Overall bit rate : 7 788 Kbps
    Video #1
    ID : 1
    Format : AVC
    Format/Info : Advanced Video Codec
    Format profile : Main@L3.1
    Codec ID : V_MPEG4/ISO/AVC
    Duration : 1h 39mn
    Bit rate : 5 676 Kbps
    Nominal bit rate : 5 862 Kbps
    Width : 1 280 pixels
    Height : 688 pixels
    Display aspect ratio : 1.860
    Frame rate : 23.976 fps
    Audio #2
    ID : 2
    Format : AC-3
    Format/Info : Audio Coding 3
    Codec ID : A_AC3
    Duration : 1h 39mn
    Bit rate mode : Constant
    Bit rate : 448 Kbps
    Channel(s) : 6 channels
    Title : Polish AC3 5.1 448 Kbps
    Language : Polish
    Audio #3
    ID : 3
    Format : DTS
    Format/Info : Digital Theater Systems
    Codec ID : A_DTS
    Duration : 1h 39mn
    Bit rate mode : Constant
    Bit rate : 1 510 Kbps
    Channel(s) : 6 channels
    Channel positions : Front: L C R, Surround: L R, LFE
    Sampling rate : 48.0 KHz
    Resolution : 24 bits
    Stream size : 1.05 GiB (19%)
    Title : English DTS 5.1 1510 Kbps
    Text #4
    ID : 4
    Format : SSA
    Codec ID : S_TEXT/SSA
    Codec ID/Info : Sub Station Alpha
    Title : Polish SSA
    Language : Polish
    Text #5
    ID : 5
    Format : UTF-8
    Codec ID : S_TEXT/UTF8
    Codec ID/Info : UTF-8 Plain Text
    Title : Polish SRT
    Language : Polish






    Subtitles: PL (SSA/SRT) wmuxowane i ososbno
    Source A/V : BD

    Kompresja RAR + 10% Danych Naprawczych
    Brak Hasła
    Plki po 1,6Gb
    Pliki można pobierać na przemian

    Rapidu - FileShark :



    Linki / Download / Mirror / Pobierz:
    Linki widoczne tylko dla zarejestrowanych użytkowników.


    Roki IV / Rocky IV (1985) MULTi.720p.BluRay.x264.DTS.AC3-DX
    Lektor i Napisy PL


    Spoiler:


    reżyseria: Sylvester Stallone
    scenariusz: Sylvester Stallone
    gatunek: Dramat Sportowy
    produkcja: USA
    premiera: 21 listopada 1985 (świat)


    Rocky wyjeżdża do ZSRR, by stoczyć walkę z tamtejszym mistrzem i pomścić swojego zmarłego przyjaciela.


    GENERAL :
    Spoiler:
    Format : Matroska
    File size : 5.31 GiB
    Duration : 1h 31mn
    Overall bit rate : 8 309 Kbps
    Video #1
    ID : 1
    Format : AVC
    Format/Info : Advanced Video Codec
    Format profile : Main@L3.1
    Codec ID : V_MPEG4/ISO/AVC
    Duration : 1h 31mn
    Bit rate : 6 186 Kbps
    Nominal bit rate : 6 421 Kbps
    Width : 1 280 pixels
    Height : 688 pixels
    Display aspect ratio : 1.860
    Frame rate : 23.976 fps
    Audio #2
    ID : 2
    Format : AC-3
    Format/Info : Audio Coding 3
    Codec ID : A_AC3
    Duration : 1h 31mn
    Bit rate mode : Constant
    Bit rate : 448 Kbps
    Channel(s) : 6 channels
    Title : Polish AC3 5.1 448 Kbps
    Language : Polish
    Audio #3
    ID : 3
    Format : DTS
    Format/Info : Digital Theater Systems
    Codec ID : A_DTS
    Duration : 1h 31mn
    Bit rate mode : Constant
    Bit rate : 1 510 Kbps
    Channel(s) : 6 channels
    Channel positions : Front: L C R, Surround: L R, LFE
    Sampling rate : 48.0 KHz
    Resolution : 24 bits
    Stream size : 988 MiB (18%)
    Title : English DTS 5.1 1510 Kbps
    Text #4
    ID : 4
    Format : SSA
    Codec ID : S_TEXT/SSA
    Codec ID/Info : Sub Station Alpha
    Title : Polish SSA
    Language : Polish
    Text #5
    ID : 5
    Format : UTF-8
    Codec ID : S_TEXT/UTF8
    Codec ID/Info : UTF-8 Plain Text
    Title : Polish SRT
    Language : Polish






    Subtitles: PL (SSA/SRT) wmuxowane i ososbno
    Source A/V : BD

    Kompresja RAR + 10% Danych Naprawczych
    Brak Hasła
    Plki po 1,6Gb
    Pliki można pobierać na przemian

    Rapidu - FileShark :



    Linki / Download / Mirror / Pobierz:
    Linki widoczne tylko dla zarejestrowanych użytkowników.


    Roki V / Rocky V (1990) MULTi.720p.BluRay.x264.DTS.AC3-DX
    Lektor i Napisy PL


    Spoiler:


    reżyseria: John G. Avildsen
    scenariusz: Sylvester Stallone
    gatunek: Dramat Sportowy
    produkcja: USA
    premiera: 16 listopada 1990 (świat)


    Rocky traci majątek i ze względów zdrowotnych rezygnuje z boksu. Postanawia zostać trenerem dobrze zapowiadającego się Tommy'ego Gunna.


    GENERAL :
    Spoiler:
    Format : Matroska
    File size : 5.47 GiB
    Duration : 1h 44mn
    Overall bit rate : 7 513 Kbps
    Video #1
    ID : 1
    Format : AVC
    Format/Info : Advanced Video Codec
    Format profile : Main@L3.1
    Codec ID : V_MPEG4/ISO/AVC
    Duration : 1h 44mn
    Bit rate : 5 405 Kbps
    Nominal bit rate : 5 588 Kbps
    Width : 1 280 pixels
    Height : 688 pixels
    Display aspect ratio : 1.860
    Frame rate : 23.976 fps
    Audio #2
    ID : 2
    Format : AC-3
    Format/Info : Audio Coding 3
    Codec ID : A_AC3
    Duration : 1h 44mn
    Bit rate mode : Constant
    Bit rate : 448 Kbps
    Channel(s) : 6 channels
    Title : Polish AC3 5.1 448 Kbps
    Language : Polish
    Audio #3
    ID : 3
    Format : DTS
    Format/Info : Digital Theater Systems
    Codec ID : A_DTS
    Duration : 1h 44mn
    Bit rate mode : Constant
    Bit rate : 1 510 Kbps
    Channel(s) : 6 channels
    Channel positions : Front: L C R, Surround: L R, LFE
    Sampling rate : 48.0 KHz
    Resolution : 24 bits
    Stream size : 1.10 GiB (20%)
    Title : English DTS 5.1 1510 Kbps
    Text #4
    ID : 4
    Format : SSA
    Codec ID : S_TEXT/SSA
    Codec ID/Info : Sub Station Alpha
    Title : Polish SSA
    Language : Polish
    Text #5
    ID : 5
    Format : UTF-8
    Codec ID : S_TEXT/UTF8
    Codec ID/Info : UTF-8 Plain Text
    Title : Polish SRT
    Language : Polish






    Subtitles: PL (SSA/SRT) wmuxowane i ososbno
    Source A/V : BD

    Kompresja RAR + 10% Danych Naprawczych
    Brak Hasła
    Plki po 1,6Gb
    Pliki można pobierać na przemian

    Rapidu - FileShark :



    Linki / Download / Mirror / Pobierz:
    Linki widoczne tylko dla zarejestrowanych użytkowników.


    Roki Balboa / Rocky Balboa (2006) MULTi.720p.BluRay.x264.DTS.AC3-DX
    Lektor i Napisy PL


    Spoiler:


    reżyseria: Sylvester Stallone
    scenariusz: Sylvester Stallone
    gatunek: Dramat Sportowy
    produkcja: USA
    premiera: 9 marca 2007 (Polska) 20 grudnia 2006 (świat)


    Pięćdziesięcioletni Rocky wznawia treningi, by stoczyć pokazową walkę z aktualnym mistrzem świata w boksie.


    GENERAL :
    Spoiler:
    Format : Matroska
    File size : 5.42 GiB
    Duration : 1h 41mn
    Overall bit rate : 7 617 Kbps
    Video #1
    ID : 1
    Format : AVC
    Format/Info : Advanced Video Codec
    Format profile : Main@L3.1
    Codec ID : V_MPEG4/ISO/AVC
    Duration : 1h 41mn
    Bit rate : 5 508 Kbps
    Nominal bit rate : 5 729 Kbps
    Width : 1 280 pixels
    Height : 688 pixels
    Display aspect ratio : 1.860
    Frame rate : 23.976 fps
    Audio #2
    ID : 2
    Format : AC-3
    Format/Info : Audio Coding 3
    Codec ID : A_AC3
    Duration : 1h 41mn
    Bit rate mode : Constant
    Bit rate : 448 Kbps
    Channel(s) : 6 channels
    Title : Polish AC3 5.1 448 Kbps
    Language : Polish
    Audio #3
    ID : 3
    Format : DTS
    Format/Info : Digital Theater Systems
    Codec ID : A_DTS
    Duration : 1h 41mn
    Bit rate mode : Constant
    Bit rate : 1 510 Kbps
    Channel(s) : 6 channels
    Channel positions : Front: L C R, Surround: L R, LFE
    Sampling rate : 48.0 KHz
    Resolution : 16 bits
    Stream size : 1.07 GiB (20%)
    Title : English DTS 5.1 1510 Kbps
    Text #4
    ID : 4
    Format : SSA
    Codec ID : S_TEXT/SSA
    Codec ID/Info : Sub Station Alpha
    Title : Polish SSA
    Language : Polish
    Text #5
    ID : 5
    Format : UTF-8
    Codec ID : S_TEXT/UTF8
    Codec ID/Info : UTF-8 Plain Text
    Title : Polish SRT
    Language : Polish






    Subtitles: PL (SSA/SRT) wmuxowane i ososbno
    Source A/V : BD

    Kompresja RAR + 10% Danych Naprawczych
    Brak Hasła
    Plki po 1,6Gb
    Pliki można pobierać na przemian

    Rapidu - FileShark :



    Linki / Download / Mirror / Pobierz:
    Linki widoczne tylko dla zarejestrowanych użytkowników.
    Ostatnio edytowane przez Demonxx ; 30-01-2016 o 14:30

Podobne wątki

  1. Roki V / Rocky V (1990)
    Przez Demonxx w dziale DVD/Blu-ray - Filmy
    Odpowiedzi: 1
    Ostatni post / autor: 30-01-2016, 14:20
  2. Roki IV / Rocky IV (1985)
    Przez Demonxx w dziale DVD/Blu-ray - Filmy
    Odpowiedzi: 1
    Ostatni post / autor: 30-01-2016, 14:10
  3. Roki / Rocky (1976)
    Przez Demonxx w dziale DVD/Blu-ray - Filmy
    Odpowiedzi: 1
    Ostatni post / autor: 30-01-2016, 13:43
  4. Rocky Kolekcja I-VI (1976-2006)
    Przez Demonxx w dziale DVD/Blu-ray - BoxSet
    Odpowiedzi: 0
    Ostatni post / autor: 10-07-2015, 17:51

Uprawnienia umieszczania postów

  • Nie możesz zakładać nowych tematów
  • Nie możesz pisać wiadomości
  • Nie możesz dodawać załączników
  • Nie możesz edytować swoich postów
  •  
Page Rank Check