Pokaż wyniki od 1 do 2 z 2

Wątek: Avengers / The Avengers (2012 - 2015)

  
  1. #1
    Użytkownik Array
    Dołączył
    Jun 2015
    Posty
    740
    Podziękował/a
    0
    Otrzymał/a podziękowań 11
    Siła reputacji
    77

    Domyślnie Avengers / The Avengers (2012 - 2015)

    Avengers / The Avengers (2012) MULTI.1080p.BluRay.x264.DTS.AC3-DX / Dubbing , Lektor i Napisy PL



    reżyseria: Joss Whedon
    scenariusz: Joss Whedon
    gatunek: Akcja Sci-Fi
    produkcja: USA
    premiera: 11 maja 2012 (Polska) 11 kwietnia 2012 (świat)


    Grupa superbohaterów, na czele z Thorem, Iron Manem i Hulkiem, łączy siły,
    by obronić Ziemię przed inwazją kosmitów.

    General
    Spoiler:
    Format : Matroska
    File size : 11.4 GiB
    Duration : 2h 22mn
    Overall bit rate : 11.5 Mbps
    Video #1
    ID : 1
    Format : AVC
    Format/Info : Advanced Video Codec
    Format profile : Main@L4.1
    Codec ID : V_MPEG4/ISO/AVC
    Duration : 2h 22mn
    Bit rate : 8 834 Kbps
    Nominal bit rate : 9 318 Kbps
    Width : 1 920 pixels
    Height : 1 080 pixels
    Display aspect ratio : 16:9
    Frame rate : 23.976 fps
    Audio #2
    ID : 2
    Format : DTS
    Format/Info : Digital Theater Systems
    Codec ID : A_DTS
    Duration : 2h 22mn
    Bit rate mode : Constant
    Bit rate : 1 510 Kbps
    Channel(s) : 6 channels
    Channel positions : Front: L C R, Surround: L R, LFE
    Sampling rate : 48.0 KHz
    Resolution : 24 bits
    Stream size : 1.51 GiB (13%)
    Title : English DTS 5.1 1510 Kbps
    Language : English
    Audio #3
    ID : 3
    Format : AC-3
    Format/Info : Audio Coding 3
    Codec ID : A_AC3
    Duration : 2h 22mn
    Bit rate mode : Constant
    Bit rate : 640 Kbps
    Channel(s) : 6 channels
    Channel positions : Front: L C R, Surround: L R, LFE
    Sampling rate : 48.0 KHz
    Stream size : 654 MiB (6%)
    Title : Polish Dubbing AC3 5.1 640 Kbps
    Language : Polish
    Audio #4
    ID : 4
    Format : AC-3
    Format/Info : Audio Coding 3
    Codec ID : A_AC3
    Duration : 2h 22mn
    Bit rate mode : Constant
    Bit rate : 256 Kbps
    Channel(s) : 2 channels
    Channel positions : L R
    Sampling rate : 48.0 KHz
    Stream size : 262 MiB (2%)
    Title : Polish Lektor AC3 2.0 256 Kbps
    Language : Polish
    Text #5
    ID : 5
    Format : SSA
    Codec ID : S_TEXT/SSA
    Codec ID/Info : Sub Station Alpha
    Title : Polish SSA
    Language : Polish
    Text #6
    ID : 6
    Format : UTF-8
    Codec ID : S_TEXT/UTF8
    Codec ID/Info : UTF-8 Plain Text
    Title : Polish SRT
    Language : Polish


    Spoiler:






    Napisy PL Wmuxowane
    Source A/V : BD

    Kompresja RAR + 10% Danych Naprawczych
    Brak Hasła
    Plki po 1,7Gb
    Pliki można pobierać na przemian

    Rapidu - Storbit - FileShark :


    Linki / Download / Mirror / Pobierz:
    Linki widoczne tylko dla zarejestrowanych użytkowników.
    Avengers Czas Ultrona / Avengers Age of Ultron (2015) MULTI.1080p.BluRay.x264.DTS.AC3-DX / Dubbing i Napisy PL



    reżyseria: Joss Whedon
    scenariusz: Joss Whedon
    gatunek: Akcja Sci-Fi
    produkcja: USA
    premiera: 7 maja 2015 (Polska) 13 kwietnia 2015 (świat)


    Najpotężniejsi bohaterowie na Ziemi łączą swoje siły, aby zniszczyć Ultrona.

    General
    Spoiler:
    Format : Matroska
    File size : 11.6 GiB
    Duration : 2h 21mn
    Overall bit rate : 11.7 Mbps
    Video #1
    ID : 1
    Format : AVC
    Format/Info : Advanced Video Codec
    Format profile : High@L4.1
    Codec ID : V_MPEG4/ISO/AVC
    Duration : 2h 21mn
    Bit rate : 9 348 Kbps
    Nominal bit rate : 9 562 Kbps
    Width : 1 920 pixels
    Height : 808 pixels
    Display aspect ratio : 2.35:1
    Frame rate : 23.976 fps
    Audio #2
    ID : 2
    Format : DTS
    Format/Info : Digital Theater Systems
    Codec ID : A_DTS
    Duration : 2h 21mn
    Bit rate mode : Constant
    Bit rate : 1 510 Kbps
    Channel(s) : 6 channels
    Channel positions : Front: L C R, Surround: L R, LFE
    Sampling rate : 48.0 KHz
    Resolution : 24 bits
    Stream size : 1.49 GiB (13%)
    Title : English DTS 5.1 1510 Kbps
    Language : English
    Audio #3
    ID : 3
    Format : AC-3
    Format/Info : Audio Coding 3
    Codec ID : A_AC3
    Duration : 2h 21mn
    Bit rate mode : Constant
    Bit rate : 640 Kbps
    Channel(s) : 6 channels
    Channel positions : Front: L C R, Surround: L R, LFE
    Sampling rate : 48.0 KHz
    Stream size : 647 MiB (5%)
    Title : Polish Dubbing AC3 5.1 640 Kbps
    Language : Polish
    Text #4
    ID : 4
    Format : SSA
    Codec ID : S_TEXT/SSA
    Codec ID/Info : Sub Station Alpha
    Title : Polish SSA
    Language : Polish
    Text #5
    ID : 5
    Format : S_HDMV/PGS
    Codec ID : S_HDMV/PGS
    Title : Polish PGS
    Language : Polish
    Text #6
    ID : 6
    Format : UTF-8
    Codec ID : S_TEXT/UTF8
    Codec ID/Info : UTF-8 Plain Text
    Title : Polish SRT
    Language : Polish



    Spoiler:





    Napisy PL Wmuxowane
    Source A/V : BD

    Kompresja RAR + 10% Danych Naprawczych
    Brak Hasła
    Plki po 1,7Gb
    Pliki można pobierać na przemian

    Rapidu - Storbit - FileShark :


    Linki / Download / Mirror / Pobierz:
    Linki widoczne tylko dla zarejestrowanych użytkowników.

  2. #2
    Użytkownik Array
    Dołączył
    Jun 2015
    Posty
    740
    Podziękował/a
    0
    Otrzymał/a podziękowań 11
    Siła reputacji
    77

    Domyślnie

    Avengers 3D / The Avengers 3D (2012) 1080p.3D.BluRay.Half.Over-Under.x264.AC3-DX Dubbing PL

    Spoiler:


    reżyseria: Joss Whedon
    scenariusz: Joss Whedon
    gatunek: Akcja Sci-Fi
    produkcja: USA
    premiera: 11 maja 2012 (Polska) 11 kwietnia 2012 (świat)


    Grupa superbohaterów, na czele z Thorem, Iron Manem i Hulkiem, łączy siły,
    by obronić Ziemię przed inwazją kosmitów.


    General
    Spoiler:
    Format : Matroska
    File size : 11.4 GiB
    Duration : 2h 22mn
    Overall bit rate : 11.4 Mbps
    Video #1
    Format : AVC
    Format profile : Main@L4.1
    Width : 1 920 pixels
    Height : 1 080 pixels
    Frame rate : 23.976 fps
    Audio #2
    Format : AC-3
    Bit rate : 640 Kbps
    Channel(s) : 6 channels
    Sampling rate : 48.0 KHz
    Language : Polish






    Source A/V : BD

    Kompresja RAR + 10% Danych Naprawczych
    Brak Hasła
    Plki po 1,6Gb

    FileShark :



    Linki / Download / Mirror / Pobierz:
    Linki widoczne tylko dla zarejestrowanych użytkowników.


    Avengers Czas Ultrona 3D / Avengers Age of Ultron 3D (2015)1080p.3D.BluRay.Half.Over-Under.x264.AC3-DX Dubbing PL

    Spoiler:


    reżyseria: Joss Whedon
    scenariusz: Joss Whedon
    gatunek: Akcja Sci-Fi
    produkcja: USA
    premiera: 7 maja 2015 (Polska) 13 kwietnia 2015 (świat)


    Najpotężniejsi bohaterowie na Ziemi łączą swoje siły, aby zniszczyć Ultrona.


    General
    Spoiler:
    Format : Matroska
    File size : 11.7 GiB
    Duration : 2h 21mn
    Overall bit rate : 11.8 Mbps
    Video #1
    Format : AVC
    Format profile : High@L4.1
    Width : 1 920 pixels
    Height : 1 080 pixels
    Frame rate : 23.976 fps
    Audio #2
    Format : AC-3
    Bit rate : 640 Kbps
    Channel(s) : 6 channels
    Sampling rate : 48.0 KHz
    Language : Polish






    Source A/V : BD
    Kompresja RAR + 10% Danych Naprawczych
    Brak Hasła
    Plki po 1,6Gb

    FileShark :



    Linki / Download / Mirror / Pobierz:
    Linki widoczne tylko dla zarejestrowanych użytkowników.
    Ostatnio edytowane przez Demonxx ; 19-03-2016 o 13:32

Podobne wątki

  1. Avengers: Czas Ultrona / Avengers: Age of Ultron (2015)
    Przez prusva w dziale DVD/Blu-ray - Filmy
    Odpowiedzi: 6
    Ostatni post / autor: 19-09-2017, 23:16
  2. Avengers: Czas Ultrona / Avengers: Age of Ultron (2015)
    Przez *Motylek* w dziale AVI & DIVX
    Odpowiedzi: 31
    Ostatni post / autor: 30-12-2016, 21:17
  3. Avengers: Czas Ultrona / Avengers: Age of Ultron (2015)
    Przez noutilus w dziale AVI & DIVX
    Odpowiedzi: 37
    Ostatni post / autor: 10-09-2015, 19:18
  4. Avengers: Czas Ultrona / Avengers: Age of Ultron (2015)
    Przez *Motylek* w dziale DVD/Blu-ray - Filmy
    Odpowiedzi: 13
    Ostatni post / autor: 08-09-2015, 00:27

Uprawnienia umieszczania postów

  • Nie możesz zakładać nowych tematów
  • Nie możesz pisać wiadomości
  • Nie możesz dodawać załączników
  • Nie możesz edytować swoich postów
  •  
Page Rank Check