Pokaż wyniki od 1 do 3 z 3

Wątek: X-Men (2000 - 2014)

  
  1. #1
    Użytkownik Array
    Dołączył
    Jun 2015
    Posty
    740
    Podziękował/a
    0
    Otrzymał/a podziękowań 11
    Siła reputacji
    77

    Domyślnie X-Men (2000 - 2014)

    X-Men Przeszłość która nadejdzie - X-Men Days of Future Past (2014) 1080p.Bluray.x264.AC3-DX / Lektor i Dubbing PL


    60 FPS




    reżyseria: Bryan Singer
    scenariusz: Simon Kinberg
    gatunek: Akcja Sci-Fi
    produkcja: USA Wielka Brytania
    premiera: 23 maja 2014 (Polska) 10 maja 2014 (świat)


    X-Meni wysyłają Wolverine'a w przeszłość,
    by zapobiegł zagładzie mutantów i ludzi.

    General
    Spoiler:
    Format : Matroska
    File size : 15.0 GiB
    Duration : 2h 11mn
    Overall bit rate : 16.3 Mbps
    Video #1
    ID : 1
    Format : AVC
    Format/Info : Advanced Video Codec
    Format profile : High@L4.1
    Codec ID : V_MPEG4/ISO/AVC
    Duration : 2h 11mn
    Bit rate : 15.2 Mbps
    Width : 1 920 pixels
    Height : 800 pixels
    Display aspect ratio : 2.40:1
    Frame rate : 59.940 fps
    Resolution : 24 bits
    Audio #2
    ID : 2
    Format : AC-3
    Format/Info : Audio Coding 3
    Codec ID : A_AC3
    Duration : 2h 11mn
    Bit rate mode : Constant
    Bit rate : 384 Kbps
    Channel(s) : 6 channels
    Channel positions : Front: L C R, Surround: L R, LFE
    Sampling rate : 48.0 KHz
    Stream size : 361 MiB (2%)
    Title : lektor
    Language : Polish
    Audio #3
    ID : 3
    Format : AC-3
    Format/Info : Audio Coding 3
    Codec ID : A_AC3
    Duration : 2h 11mn
    Bit rate mode : Constant
    Bit rate : 448 Kbps
    Channel(s) : 6 channels
    Channel positions : Front: L C R, Surround: L R, LFE
    Sampling rate : 48.0 KHz
    Stream size : 422 MiB (3%)
    Title : dubbing
    Language : Polish







    Source A/V : BD

    Kompresja RAR + 10% Danych Naprawczych
    Brak Hasła
    Plki po 1,7Gb
    Pliki można pobierać na przemian

    Storbit - Rapidu - FileShark - LunaticFiles - CatShare:


    Linki / Download / Mirror / Pobierz:
    Linki widoczne tylko dla zarejestrowanych użytkowników.
    Single Link LunaticFiles :

    Linki / Download / Mirror / Pobierz:
    Linki widoczne tylko dla zarejestrowanych użytkowników.

    Wolverine / The Wolverine (2013) 1080p.Bluray.x264.AC3-DX / Lektor PL


    60 FPS




    reżyseria: James Mangold
    scenariusz: Mark Bomback Scott Frank
    gatunek: Akcja Sci-Fi
    produkcja: USA Wielka Brytania
    premiera: 26 lipca 2013 (Polska) 16 lipca 2013 (świat)


    Wolverine wyrusza do Japonii, gdzie zmierzy się ze starym wrogiem, który wpłynie na jego przyszłość.

    General
    Spoiler:
    Format : Matroska
    File size : 12.6 GiB
    Duration : 2h 18mn
    Overall bit rate : 13.1 Mbps
    Video #1
    ID : 1
    Format : AVC
    Format/Info : Advanced Video Codec
    Format profile : High@L4.1
    Codec ID : V_MPEG4/ISO/AVC
    Duration : 2h 17mn
    Bit rate : 12.3 Mbps
    Width : 1 920 pixels
    Height : 792 pixels
    Display aspect ratio : 2.40:1
    Frame rate : 59.940 fps
    Resolution : 24 bits
    Audio #2
    ID : 2
    Format : AC-3
    Format/Info : Audio Coding 3
    Codec ID : A_AC3
    Duration : 2h 18mn
    Bit rate mode : Constant
    Bit rate : 448 Kbps
    Channel(s) : 6 channels
    Channel positions : Front: L C R, Surround: L R, LFE
    Sampling rate : 48.0 KHz
    Stream size : 442 MiB (3%)
    Language : Polish







    Source A/V : BD

    Kompresja RAR + 10% Danych Naprawczych
    Brak Hasła
    Plki po 1,7Gb
    Pliki można pobierać na przemian

    Storbit - Rapidu - FileShark - LunaticFiles - CatShare:


    Linki / Download / Mirror / Pobierz:
    Linki widoczne tylko dla zarejestrowanych użytkowników.
    Single Link LunaticFiles :

    Linki / Download / Mirror / Pobierz:
    Linki widoczne tylko dla zarejestrowanych użytkowników.

    X-Men Pierwsza klasa / X-Men First Class (2011) 1080p.Bluray.x264.AC3-DX /
    Lektor PL
    60 FPS




    reżyseria: Matthew Vaughn
    scenariusz: Jane Goldman Ashley Miller Zack Stentz Matthew Vaughn
    gatunek: Akcja Sci-Fi
    produkcja: USA
    premiera: 3 czerwca 2011 (Polska) 25 maja 2011 (świat)


    Młodzi Charles Xavier i Erik Lehnsherr gromadzą elitarną drużynę mutantów,
    znaną jako X-Meni, by zapobiec III wojnie światowej.

    General
    Spoiler:
    Format : Matroska
    File size : 13.7 GiB
    Duration : 2h 11mn
    Overall bit rate : 14.9 Mbps
    Video #1
    ID : 1
    Format : AVC
    Format/Info : Advanced Video Codec
    Format profile : High@L4.1
    Codec ID : V_MPEG4/ISO/AVC
    Duration : 2h 11mn
    Bit rate : 14.2 Mbps
    Width : 1 920 pixels
    Height : 816 pixels
    Display aspect ratio : 2.35:1
    Frame rate : 59.940 fps
    Resolution : 24 bits
    Audio #2
    ID : 2
    Format : AC-3
    Format/Info : Audio Coding 3
    Codec ID : A_AC3
    Duration : 2h 11mn
    Bit rate mode : Constant
    Bit rate : 448 Kbps
    Channel(s) : 6 channels
    Channel positions : Front: L C R, Surround: L R, LFE
    Sampling rate : 48.0 KHz
    Stream size : 422 MiB (3%)
    Language : Polish







    Source A/V : BD

    Kompresja RAR + 10% Danych Naprawczych
    Brak Hasła
    Plki po 1,7Gb
    Pliki można pobierać na przemian

    Storbit - Rapidu - FileShark - LunaticFiles - CatShare:


    Linki / Download / Mirror / Pobierz:
    Linki widoczne tylko dla zarejestrowanych użytkowników.
    Single Link LunaticFiles :

    Linki / Download / Mirror / Pobierz:
    Linki widoczne tylko dla zarejestrowanych użytkowników.

    X-Men Geneza Wolverine / X-Men Origins Wolverine (2009) 1080p.Bluray.x264.AC3-DX / Lektor PL


    60 FPS




    reżyseria: Gavin Hood
    scenariusz: David Benioff Skip Woods
    gatunek: AkcjaSci-Fi
    produkcja: USA
    premiera: 30 kwietnia 2009 (Polska) 8 kwietnia 2009 (świat)


    Logan i Victor zostają zwerbowani przez pułkownika Strykera do wykonywania niecodziennych misji.
    Wolverine, widząc okrucieństwo, jakiego dopuszczają się pozostali najemnicy, odchodzi z jednostki.

    General
    Spoiler:
    Format : Matroska
    File size : 9.30 GiB
    Duration : 1h 47mn
    Overall bit rate : 12.4 Mbps
    Video #1
    ID : 1
    Format : AVC
    Format/Info : Advanced Video Codec
    Format profile : High@L4.1
    Codec ID : V_MPEG4/ISO/AVC
    Duration : 1h 47mn
    Bit rate : 11.7 Mbps
    Width : 1 920 pixels
    Height : 816 pixels
    Display aspect ratio : 2.35:1
    Frame rate : 59.940 fps
    Audio #2
    ID : 2
    Format : AC-3
    Format/Info : Audio Coding 3
    Codec ID : A_AC3
    Duration : 1h 47mn
    Bit rate mode : Constant
    Bit rate : 448 Kbps
    Channel(s) : 6 channels
    Channel positions : Front: L C R, Surround: L R, LFE
    Sampling rate : 48.0 KHz
    Stream size : 344 MiB (4%)
    Language : Polish







    Source A/V : BD

    Kompresja RAR + 10% Danych Naprawczych
    Brak Hasła
    Plki po 1,7Gb
    Pliki można pobierać na przemian

    Storbit - Rapidu - FileShark - LunaticFiles - CatShare:


    Linki / Download / Mirror / Pobierz:
    Linki widoczne tylko dla zarejestrowanych użytkowników.
    Single Link LunaticFiles :

    Linki / Download / Mirror / Pobierz:
    Linki widoczne tylko dla zarejestrowanych użytkowników.

  2. #2
    Użytkownik Array
    Dołączył
    Jun 2015
    Posty
    740
    Podziękował/a
    0
    Otrzymał/a podziękowań 11
    Siła reputacji
    77

    Domyślnie

    X-Men I (2000) 1080p.Bluray.x264.AC3-DX / Lektor PL


    60 FPS


    Spoiler:


    reżyseria: Bryan Singer
    scenariusz: David Hayter
    gatunek: Akcja Sci-Fi
    produkcja: USA
    premiera: 13 października 2000 (Polska) 13 lipca 2000 (świat)



    Ekranizacja popularnej serii komiksów o obdarzonych nadnaturalnymi zdolnościami mutantach.
    Schronienie przed prześladowaniami ze strony ludzi znajdują w specjalnej szkole profesora Charlesa Xaviera.


    General
    Spoiler:
    Format : Matroska
    File size : 9.61 GiB
    Duration : 1h 44mn
    Overall bit rate : 13.2 Mbps
    Video #1
    ID : 1
    Format : AVC
    Format/Info : Advanced Video Codec
    Format profile : High@L4.1
    Codec ID : V_MPEG4/ISO/AVC
    Duration : 1h 44mn
    Bit rate : 12.5 Mbps
    Width : 1 920 pixels
    Height : 816 pixels
    Display aspect ratio : 2.35:1
    Frame rate : 59.940 fps
    Resolution : 24 bits
    Audio #2
    ID : 2
    Format : AC-3
    Format/Info : Audio Coding 3
    Codec ID : A_AC3
    Duration : 1h 44mn
    Bit rate mode : Constant
    Bit rate : 448 Kbps
    Channel(s) : 2 channels
    Channel positions : L R
    Sampling rate : 48.0 KHz
    Stream size : 334 MiB (3%)
    Language : Polish






    Source A/V : BD
    Kompresja RAR + 10% Danych Naprawczych
    Brak Hasła
    Plki po 1,2Gb
    Pliki można pobierać na przemian
    Rapidu - FileShark :



    Linki / Download / Mirror / Pobierz:
    Linki widoczne tylko dla zarejestrowanych użytkowników.


    X-Men II - X2 (2003) 1080p.Bluray.x264.AC3-DX / Lektor PL


    60 FPS


    Spoiler:


    reżyseria: Bryan Singer
    scenariusz: Michael Dougherty David Hayter Dan Harris
    gatunek: Akcja Sci-Fi
    produkcja: Kanada USA
    premiera: 1 maja 2003 (Polska) 24 kwietnia 2003 (świat)


    Sytuacja prześladowanych przez ludzi mutantów o nadnaturalnych zdolnościach pogarsza się,
    gdy jeden z nich atakuje prezydenta USA.


    General
    Spoiler:
    Format : Matroska
    File size : 13.5 GiB
    Duration : 2h 13mn
    Overall bit rate : 14.4 Mbps
    Video #1
    ID : 1
    Format : AVC
    Format/Info : Advanced Video Codec
    Format profile : High@L4.1
    Codec ID : V_MPEG4/ISO/AVC
    Duration : 2h 13mn
    Bit rate : 13.7 Mbps
    Width : 1 920 pixels
    Height : 800 pixels
    Display aspect ratio : 2.40:1
    Frame rate : 59.940 fps
    Resolution : 24 bits
    Audio #2
    ID : 2
    Format : AC-3
    Format/Info : Audio Coding 3
    Codec ID : A_AC3
    Duration : 2h 13mn
    Bit rate mode : Constant
    Bit rate : 448 Kbps
    Channel(s) : 2 channels
    Channel positions : L R
    Sampling rate : 48.0 KHz
    Stream size : 429 MiB (3%)
    Language : Polish






    Source A/V : BD

    Kompresja RAR + 10% Danych Naprawczych
    Brak Hasła
    Plki po 1,2Gb
    Pliki można pobierać na przemian
    Rapidu - FileShark :



    Linki / Download / Mirror / Pobierz:
    Linki widoczne tylko dla zarejestrowanych użytkowników.


    X-Men Ostatni bastion / X-Men The Last Stand (2006) 1080p.Bluray.x264.AC3-DX / Lektor PL


    60 FPS


    Spoiler:


    reżyseria: Brett Ratner
    scenariusz: Simon Kinberg Zak Penn
    gatunek: Akcja Sci-Fi
    produkcja: Kanada USA Wielka Brytania
    premiera: 26 maja 2006 (Polska) 22 maja 2006 (świat)


    Trzecia część ekranizacji komiksów o tytułowych mutantach.
    Bohaterowie stają przed wyborem pozostać sobą czy skorzystać z
    wynalezionego właśnie lekarstwa cofającego mutację.



    General
    Spoiler:
    Format : Matroska
    File size : 11.1 GiB
    Duration : 1h 44mn
    Overall bit rate : 15.2 Mbps
    Video #1
    ID : 1
    Format : AVC
    Format/Info : Advanced Video Codec
    Format profile : High@L4.1
    Codec ID : V_MPEG4/ISO/AVC
    Duration : 1h 43mn
    Bit rate : 14.5 Mbps
    Width : 1 920 pixels
    Height : 800 pixels
    Display aspect ratio : 2.40:1
    Frame rate : 59.940 fps
    Resolution : 24 bits
    Audio #2
    ID : 2
    Format : AC-3
    Format/Info : Audio Coding 3
    Codec ID : A_AC3
    Duration : 1h 44mn
    Bit rate mode : Constant
    Bit rate : 448 Kbps
    Channel(s) : 6 channels
    Channel positions : Front: L C R, Surround: L R, LFE
    Sampling rate : 48.0 KHz
    Stream size : 334 MiB (3%)
    Language : Polish






    Source A/V : BD

    Kompresja RAR + 10% Danych Naprawczych
    Brak Hasła
    Plki po 1,2Gb
    Pliki można pobierać na przemian
    Rapidu - FileShark :



    Linki / Download / Mirror / Pobierz:
    Linki widoczne tylko dla zarejestrowanych użytkowników.


    X-Men Geneza Wolverine / X-Men Origins Wolverine (2009) 1080p.Bluray.x264.AC3-DX / Lektor PL


    60 FPS


    Spoiler:


    reżyseria: Gavin Hood
    scenariusz: David Benioff Skip Woods
    gatunek: AkcjaSci-Fi
    produkcja: USA
    premiera: 30 kwietnia 2009 (Polska) 8 kwietnia 2009 (świat)


    Logan i Victor zostają zwerbowani przez pułkownika Strykera do wykonywania niecodziennych misji.
    Wolverine, widząc okrucieństwo, jakiego dopuszczają się pozostali najemnicy, odchodzi z jednostki.


    General
    Spoiler:
    Format : Matroska
    File size : 9.30 GiB
    Duration : 1h 47mn
    Overall bit rate : 12.4 Mbps
    Video #1
    ID : 1
    Format : AVC
    Format/Info : Advanced Video Codec
    Format profile : High@L4.1
    Codec ID : V_MPEG4/ISO/AVC
    Duration : 1h 47mn
    Bit rate : 11.7 Mbps
    Width : 1 920 pixels
    Height : 816 pixels
    Display aspect ratio : 2.35:1
    Frame rate : 59.940 fps
    Audio #2
    ID : 2
    Format : AC-3
    Format/Info : Audio Coding 3
    Codec ID : A_AC3
    Duration : 1h 47mn
    Bit rate mode : Constant
    Bit rate : 448 Kbps
    Channel(s) : 6 channels
    Channel positions : Front: L C R, Surround: L R, LFE
    Sampling rate : 48.0 KHz
    Stream size : 344 MiB (4%)
    Language : Polish






    Source A/V : BD

    Kompresja RAR + 10% Danych Naprawczych
    Brak Hasła
    Plki po 1,2Gb
    Pliki można pobierać na przemian
    [color=#6633FFStorbit - Rapidu - FileShark :[/color]



    Linki / Download / Mirror / Pobierz:
    Linki widoczne tylko dla zarejestrowanych użytkowników.


    X-Men Pierwsza klasa / X-Men First Class (2011) 1080p.Bluray.x264.AC3-DX / Lektor PL


    60 FPS


    Spoiler:


    reżyseria: Matthew Vaughn
    scenariusz: Jane Goldman Ashley Miller Zack Stentz Matthew Vaughn
    gatunek: Akcja Sci-Fi
    produkcja: USA
    premiera: 3 czerwca 2011 (Polska) 25 maja 2011 (świat)


    Młodzi Charles Xavier i Erik Lehnsherr gromadzą elitarną drużynę mutantów,
    znaną jako X-Meni, by zapobiec III wojnie światowej.



    General
    Spoiler:
    Format : Matroska
    File size : 13.7 GiB
    Duration : 2h 11mn
    Overall bit rate : 14.9 Mbps
    Video #1
    ID : 1
    Format : AVC
    Format/Info : Advanced Video Codec
    Format profile : High@L4.1
    Codec ID : V_MPEG4/ISO/AVC
    Duration : 2h 11mn
    Bit rate : 14.2 Mbps
    Width : 1 920 pixels
    Height : 816 pixels
    Display aspect ratio : 2.35:1
    Frame rate : 59.940 fps
    Resolution : 24 bits
    Audio #2
    ID : 2
    Format : AC-3
    Format/Info : Audio Coding 3
    Codec ID : A_AC3
    Duration : 2h 11mn
    Bit rate mode : Constant
    Bit rate : 448 Kbps
    Channel(s) : 6 channels
    Channel positions : Front: L C R, Surround: L R, LFE
    Sampling rate : 48.0 KHz
    Stream size : 422 MiB (3%)
    Language : Polish






    Source A/V : BD

    Kompresja RAR + 10% Danych Naprawczych
    Brak Hasła
    Plki po 1,27Gb
    Pliki można pobierać na przemian
    Rapidu - FileShark :



    Linki / Download / Mirror / Pobierz:
    Linki widoczne tylko dla zarejestrowanych użytkowników.
    Ostatnio edytowane przez Demonxx ; 25-01-2016 o 13:44

  3. #3
    Użytkownik Array
    Dołączył
    Jun 2015
    Posty
    740
    Podziękował/a
    0
    Otrzymał/a podziękowań 11
    Siła reputacji
    77

    Domyślnie

    Wolverine / The Wolverine (2013) 1080p.Bluray.x264.AC3-DX / Lektor PL


    60 FPS


    Spoiler:


    reżyseria: James Mangold
    scenariusz: Mark Bomback Scott Frank
    gatunek: Akcja Sci-Fi
    produkcja: USA Wielka Brytania
    premiera: 26 lipca 2013 (Polska) 16 lipca 2013 (świat)


    Wolverine wyrusza do Japonii, gdzie zmierzy się ze starym wrogiem, który wpłynie na jego przyszłość.


    General
    Spoiler:
    Format : Matroska
    File size : 12.6 GiB
    Duration : 2h 18mn
    Overall bit rate : 13.1 Mbps
    Video #1
    ID : 1
    Format : AVC
    Format/Info : Advanced Video Codec
    Format profile : High@L4.1
    Codec ID : V_MPEG4/ISO/AVC
    Duration : 2h 17mn
    Bit rate : 12.3 Mbps
    Width : 1 920 pixels
    Height : 792 pixels
    Display aspect ratio : 2.40:1
    Frame rate : 59.940 fps
    Resolution : 24 bits
    Audio #2
    ID : 2
    Format : AC-3
    Format/Info : Audio Coding 3
    Codec ID : A_AC3
    Duration : 2h 18mn
    Bit rate mode : Constant
    Bit rate : 448 Kbps
    Channel(s) : 6 channels
    Channel positions : Front: L C R, Surround: L R, LFE
    Sampling rate : 48.0 KHz
    Stream size : 442 MiB (3%)
    Language : Polish






    Source A/V : BD

    Kompresja RAR + 10% Danych Naprawczych
    Brak Hasła
    Plki po 1,2Gb
    Pliki można pobierać na przemian
    Rapidu - FileShark :



    Linki / Download / Mirror / Pobierz:
    Linki widoczne tylko dla zarejestrowanych użytkowników.


    X-Men Przeszłość która nadejdzie / X-Men Days of Future Past (2014) 1080p.Bluray.x264.AC3-DX Dubbing PL


    60 FPS


    Spoiler:


    reżyseria: Bryan Singer
    scenariusz: Simon Kinberg
    gatunek: Akcja Sci-Fi
    produkcja: USA Wielka Brytania
    premiera: 23 maja 2014 (Polska) 10 maja 2014 (świat)


    X-Meni wysyłają Wolverine'a w przeszłość,
    by zapobiegł zagładzie mutantów i ludzi.


    General
    Spoiler:
    Format : Matroska
    File size : 14.7 GiB
    Duration : 2h 11mn
    Overall bit rate : 15.9 Mbps
    Video #1
    ID : 1
    Format : AVC
    Format/Info : Advanced Video Codec
    Format profile : High@L4.1
    Codec ID : V_MPEG4/ISO/AVC
    Duration : 2h 11mn
    Bit rate : 15.2 Mbps
    Width : 1 920 pixels
    Height : 800 pixels
    Frame rate : 59.940 fps
    Audio #2
    ID : 2
    Format : AC-3
    Format/Info : Audio Coding 3
    Codec ID : A_AC3
    Duration : 2h 11mn
    Bit rate mode : Constant
    Bit rate : 448 Kbps
    Channel(s) : 6 channels
    Channel positions : Front: L C R, Surround: L R, LFE
    Sampling rate : 48.0 KHz
    Stream size : 422 MiB (3%)
    Title : dubbing
    Language : Polish






    Source A/V : BD

    Kompresja RAR + 10% Danych Naprawczych
    Brak Hasła
    Plki po 1,2Gb
    Pliki można pobierać na przemian
    Rapidu - FileShark :



    Linki / Download / Mirror / Pobierz:
    Linki widoczne tylko dla zarejestrowanych użytkowników.
    Ostatnio edytowane przez Demonxx ; 25-01-2016 o 15:23

Podobne wątki

  1. Nieustraszony 2000 / Knight Rider 2000 (1991)
    Przez Grapeshot w dziale AVI & DIVX
    Odpowiedzi: 0
    Ostatni post / autor: 15-02-2015, 11:21
  2. Odpowiedzi: 0
    Ostatni post / autor: 23-12-2014, 17:07
  3. Odpowiedzi: 0
    Ostatni post / autor: 23-12-2014, 16:26
  4. Odpowiedzi: 0
    Ostatni post / autor: 22-11-2014, 14:08

Uprawnienia umieszczania postów

  • Nie możesz zakładać nowych tematów
  • Nie możesz pisać wiadomości
  • Nie możesz dodawać załączników
  • Nie możesz edytować swoich postów
  •  
Page Rank Check