Strona 2 z 2 PierwszyPierwszy 12
Pokaż wyniki od 11 do 11 z 11

Wątek: Gwiezdne wojny / Star Wars (1977-2005)

  
  1. #11
    Użytkownik Array
    Dołączył
    Jun 2015
    Posty
    740
    Podziękował/a
    0
    Otrzymał/a podziękowań 11
    Siła reputacji
    76

    Domyślnie

    Gwiezdne wojny Część I Mroczne widmo / Star Wars Episode I The Phantom Menace (1999)
    MULTI.1080p.3D.BluRay.Half.Over-Under.x264.DTS-HDMA.DTS.AC3-DX

    LEKTOR, DUBBING i NAPISY PL



    English : DTS-HD MA 6.1 / DTS 6.1
    Polish : AC3 (Lektor / Dubbing)

    Film ma 26 GB


    General
    Spoiler:
    Format : Matroska
    File size : 26.0 GiB
    Duration : 2h 16mn
    Overall bit rate : 27.4 Mbps
    Video #1
    ID : 1
    Format : AVC
    Format profile : Main@L4.1
    Codec ID : V_MPEG4/ISO/AVC
    Duration : 2h 16mn
    Nominal bit rate : 20.1 Mbps
    Width : 1 920 pixels
    Height : 816 pixels
    Display aspect ratio : 2.35:1
    Frame rate : 23.976 fps
    Audio #2
    ID : 2
    Format : DTS
    Format/Info : Digital Theater Systems
    Format profile : MA
    Codec ID : A_DTS
    Duration : 2h 16mn
    Bit rate mode : Variable
    Channel(s) : 7 channels
    Channel positions : Front: L C R, Surround: L C R, LFE
    Sampling rate : 48.0 KHz
    Resolution : 24 bits
    Title : English DTS-HD MA 6.1 4815 kbps
    Audio #3
    ID : 3
    Format : DTS
    Format/Info : Digital Theater Systems
    Format profile : ES
    Codec ID : A_DTS
    Duration : 2h 16mn
    Bit rate mode : Constant
    Bit rate : 1 510 Kbps
    Channel(s) : 7 channels
    Channel positions : Front: L C R, Rear: L C R, LFE
    Sampling rate : 48.0 KHz
    Resolution : 24 bits
    Stream size : 1.44 GiB (6%)
    Title : English DTS-ES 6.1 1510 kbps
    Audio #4
    ID : 4
    Format : AC-3
    Format/Info : Audio Coding 3
    Codec ID : A_AC3
    Duration : 2h 16mn
    Bit rate mode : Constant
    Bit rate : 448 Kbps
    Channel(s) : 6 channels
    Channel positions : Front: L C R, Surround: L R, LFE
    Sampling rate : 48.0 KHz
    Stream size : 436 MiB (2%)
    Title : Polish Dubbing AC3 5.1 448kbps
    Language : Polish
    Audio #5
    ID : 5
    Format : AC-3
    Format/Info : Audio Coding 3
    Codec ID : A_AC3
    Duration : 2h 16mn
    Bit rate mode : Constant
    Bit rate : 640 Kbps
    Channel(s) : 6 channels
    Channel positions : Front: L C R, Surround: L R, LFE
    Sampling rate : 48.0 KHz
    Stream size : 623 MiB (2%)
    Title : Polish Lektor AC3 5.1 640kbps
    Language : Polish
    Text #6
    ID : 6
    Format : SSA
    Codec ID : S_TEXT/SSA
    Codec ID/Info : Sub Station Alpha
    Title : Polish SSA
    Language : Polish
    Text #7
    ID : 7
    Format : UTF-8
    Codec ID : S_TEXT/UTF8
    Codec ID/Info : UTF-8 Plain Text
    Title : Polish SRT
    Language : Polish





    Subtitles: PL (SSA , SRT) wmuxowane i ososbno
    Source A/V : BD
    Kompresja RAR + 10% Danych Naprawczych
    Brak Hasła
    Plki po 1,6Gb

    Rapidu - FileShark :



    Linki / Download / Mirror / Pobierz:
    Linki widoczne tylko dla zarejestrowanych użytkowników.


    Gwiezdne wojny Część II Atak klonów / Star Wars Episode II Attack of the Clones (2002)
    MULTI.1080p.3D.BluRay.Half.Over-Under.x264.DTS-HDMA.DTS.AC3-DX

    LEKTOR, DUBBING i NAPISY PL




    English : DTS-HD MA 6.1 / DTS 6.1
    Polish : AC3 (Lektor / Dubbing)

    Film ma 26 GB

    General
    Spoiler:
    Format : Matroska
    File size : 26.1 GiB
    Duration : 2h 22mn
    Overall bit rate : 26.2 Mbps
    Video #1
    ID : 1
    Format : AVC
    Format/Info : Advanced Video Codec
    Format profile : Main@L4.1
    Codec ID : V_MPEG4/ISO/AVC
    Duration : 2h 22mn
    Nominal bit rate : 19.2 Mbps
    Width : 1 920 pixels
    Height : 816 pixels
    Display aspect ratio : 2.35:1
    Frame rate : 23.976 fps
    Audio #2
    ID : 2
    Format : DTS
    Format/Info : Digital Theater Systems
    Format profile : MA
    Codec ID : A_DTS
    Duration : 2h 22mn
    Bit rate mode : Variable
    Channel(s) : 7 channels
    Channel positions : Front: L C R, Surround: L C R, LFE
    Sampling rate : 48.0 KHz
    Resolution : 24 bits
    Title : English DTS-HD MA 6.1 4533 kbps
    Audio #3
    ID : 3
    Format : DTS
    Format/Info : Digital Theater Systems
    Format profile : ES
    Codec ID : A_DTS
    Duration : 2h 22mn
    Bit rate mode : Constant
    Bit rate : 1 510 Kbps
    Channel(s) : 7 channels
    Channel positions : Front: L C R, Rear: L C R, LFE
    Sampling rate : 48.0 KHz
    Resolution : 24 bits
    Stream size : 1.50 GiB (6%)
    Title : English DTS-ES 6.1 1510 kbps
    Audio #4
    ID : 4
    Format : AC-3
    Format/Info : Audio Coding 3
    Codec ID : A_AC3
    Duration : 2h 22mn
    Bit rate mode : Constant
    Bit rate : 448 Kbps
    Channel(s) : 6 channels
    Channel positions : Front: L C R, Surround: L R, LFE
    Sampling rate : 48.0 KHz
    Stream size : 457 MiB (2%)
    Title : Polish Dubbing AC3 5.1 448kbps
    Language : Polish
    Audio #5
    ID : 5
    Format : AC-3
    Format/Info : Audio Coding 3
    Codec ID : A_AC3
    Duration : 2h 22mn
    Bit rate mode : Constant
    Bit rate : 640 Kbps
    Channel(s) : 6 channels
    Channel positions : Front: L C R, Surround: L R, LFE
    Sampling rate : 48.0 KHz
    Stream size : 652 MiB (2%)
    Title : Polish Lektor AC3 5.1 640kbps
    Language : Polish
    Text #6
    ID : 6
    Format : SSA
    Codec ID : S_TEXT/SSA
    Codec ID/Info : Sub Station Alpha
    Title : Polish SSA
    Language : Polish
    Text #7
    ID : 7
    Format : UTF-8
    Codec ID : S_TEXT/UTF8
    Codec ID/Info : UTF-8 Plain Text
    Title : Polish SRT
    Language : Polish




    Subtitles: PL (SSA , SRT) wmuxowane i ososbno
    Source A/V : BD
    Kompresja RAR + 10% Danych Naprawczych
    Brak Hasła
    Plki po 1,6Gb

    FileShark :



    Linki / Download / Mirror / Pobierz:
    Linki widoczne tylko dla zarejestrowanych użytkowników.

    - - - Updated - - -

    Gwiezdne wojny Część III Zemsta Sithów / Star Wars Episode III Revenge of the Sith (2005)
    MULTI.1080p.3D.BluRay.Half.Over-Under.x264.DTS-HDMA.DTS.AC3-DX

    LEKTOR, DUBBING i NAPISY PL




    English : DTS-HD MA 6.1 / DTS 6.1
    Polish : AC3 (Lektor / Dubbing)

    Film ma 26 GB



    General
    Spoiler:
    Format : Matroska
    File size : 25.8 GiB
    Duration : 2h 20mn
    Overall bit rate : 26.3 Mbps
    Video #1
    ID : 1
    Format : AVC
    Format profile : Main@L4.1
    Codec ID : V_MPEG4/ISO/AVC
    Duration : 2h 19mn
    Nominal bit rate : 19.5 Mbps
    Width : 1 920 pixels
    Height : 816 pixels
    Display aspect ratio : 2.35:1
    Frame rate : 23.976 fps
    Audio #2
    ID : 2
    Format : DTS
    Format/Info : Digital Theater Systems
    Format profile : MA
    Codec ID : A_DTS
    Duration : 2h 20mn
    Bit rate mode : Variable
    Channel(s) : 7 channels
    Channel positions : Front: L C R, Surround: L C R, LFE
    Sampling rate : 48.0 KHz
    Resolution : 24 bits
    Title : English DTS-HD MA 6.1 4403 kbps
    Audio #3
    ID : 3
    Format : DTS
    Format/Info : Digital Theater Systems
    Format profile : ES
    Codec ID : A_DTS
    Duration : 2h 20mn
    Bit rate mode : Constant
    Bit rate : 1 510 Kbps
    Channel(s) : 7 channels
    Channel positions : Front: L C R, Rear: L C R, LFE
    Sampling rate : 48.0 KHz
    Resolution : 24 bits
    Stream size : 1.48 GiB (6%)
    Title : English DTS-ES 6.1 1509 kbps
    Audio #4
    ID : 4
    Format : AC-3
    Format/Info : Audio Coding 3
    Codec ID : A_AC3
    Duration : 2h 20mn
    Bit rate mode : Constant
    Bit rate : 448 Kbps
    Channel(s) : 6 channels
    Channel positions : Front: L C R, Surround: L R, LFE
    Sampling rate : 48.0 KHz
    Stream size : 449 MiB (2%)
    Title : Polish Dubbing AC3 5.1 448kbps
    Language : Polish
    Audio #5
    ID : 5
    Format : AC-3
    Format/Info : Audio Coding 3
    Codec ID : A_AC3
    Duration : 2h 20mn
    Bit rate mode : Constant
    Bit rate : 640 Kbps
    Channel(s) : 6 channels
    Channel positions : Front: L C R, Surround: L R, LFE
    Sampling rate : 48.0 KHz
    Stream size : 641 MiB (2%)
    Title : Polish Lector AC3 5.1 640kbps
    Language : Polish
    Text #6
    ID : 6
    Format : SSA
    Codec ID : S_TEXT/SSA
    Codec ID/Info : Sub Station Alpha
    Title : Polish SSA
    Language : Polish
    Text #7
    ID : 7
    Format : UTF-8
    Codec ID : S_TEXT/UTF8
    Codec ID/Info : UTF-8 Plain Text
    Title : Polish SRT
    Language : Polish





    Subtitles: PL (SSA , SRT) wmuxowane i ososbno
    Source A/V : BD
    Kompresja RAR + 10% Danych Naprawczych
    Brak Hasła
    Plki po 1,6Gb

    FileShark :



    Linki / Download / Mirror / Pobierz:
    Linki widoczne tylko dla zarejestrowanych użytkowników.


    Gwiezdne wojny Część IV Nowa nadzieja / Star Wars Episode IV A New Hope (1977)
    MULTI.1080p.3D.BluRay.Half.Over-Under.x264.DTS-HDMA.DTS.AC3-DX

    LEKTOR, DUBBING i NAPISY PL





    English : DTS-HD MA 6.1 / DTS 6.1
    Polish : AC3 (Lektor / Dubbing)

    Film ma 25 GB


    General
    Spoiler:
    Format : Matroska
    File size : 25.0 GiB
    Duration : 2h 4mn
    Overall bit rate : 28.6 Mbps
    Video #1
    ID : 1
    Format : AVC
    Format/Info : Advanced Video Codec
    Format profile : Main@L4.1
    Codec ID : V_MPEG4/ISO/AVC
    Duration : 2h 4mn
    Nominal bit rate : 22.0 Mbps
    Width : 1 920 pixels
    Height : 816 pixels
    Display aspect ratio : 2.35:1
    Frame rate : 23.976 fps
    Audio #2
    ID : 2
    Format : DTS
    Format/Info : Digital Theater Systems
    Format profile : MA
    Codec ID : A_DTS
    Duration : 2h 4mn
    Bit rate mode : Variable
    Channel(s) : 7 channels
    Channel positions : Front: L C R, Surround: L C R, LFE
    Sampling rate : 48.0 KHz
    Resolution : 24 bits
    Title : English DTS-HD MA 6.1 4069 kbps
    Audio #3
    ID : 3
    Format : DTS
    Format/Info : Digital Theater Systems
    Format profile : ES
    Codec ID : A_DTS
    Duration : 2h 4mn
    Bit rate mode : Constant
    Bit rate : 1 510 Kbps
    Channel(s) : 7 channels
    Channel positions : Front: L C R, Rear: L C R, LFE
    Sampling rate : 48.0 KHz
    Resolution : 24 bits
    Stream size : 1.32 GiB (5%)
    Title : English DTS-ES 6.1 1510 kbps
    Audio #4
    ID : 4
    Format : AC-3
    Format/Info : Audio Coding 3
    Codec ID : A_AC3
    Duration : 2h 4mn
    Bit rate mode : Constant
    Bit rate : 640 Kbps
    Channel(s) : 6 channels
    Channel positions : Front: L C R, Surround: L R, LFE
    Sampling rate : 48.0 KHz
    Stream size : 571 MiB (2%)
    Title : Polish Lector AC3 5.1 640kbps
    Language : Polish
    Audio #5
    ID : 5
    Format : AC-3
    Format/Info : Audio Coding 3
    Codec ID : A_AC3
    Duration : 2h 4mn
    Bit rate mode : Constant
    Bit rate : 448 Kbps
    Channel(s) : 6 channels
    Channel positions : Front: L C R, Surround: L R, LFE
    Sampling rate : 48.0 KHz
    Stream size : 400 MiB (2%)
    Title : Polish Dubbing AC3 5.1 448kbps
    Language : Polish
    Text #6
    ID : 6
    Format : UTF-8
    Codec ID : S_TEXT/UTF8
    Codec ID/Info : UTF-8 Plain Text
    Title : Polish SRT
    Language : Polish
    Text #7
    ID : 7
    Format : SSA
    Codec ID : S_TEXT/SSA
    Codec ID/Info : Sub Station Alpha
    Title : Polish SSA
    Language : Polish





    Subtitles: PL (SSA , SRT) wmuxowane i ososbno
    Source A/V : BD
    Kompresja RAR + 10% Danych Naprawczych
    Brak Hasła
    Plki po 1,6Gb
    FileShark :



    Linki / Download / Mirror / Pobierz:
    Linki widoczne tylko dla zarejestrowanych użytkowników.

    - - - Updated - - -

    Gwiezdne wojny Część V Imperium kontratakuje / Star Wars Episode V The Empire Strikes Back (1980)
    MULTI.1080p.3D.BluRay.Half.Over-Under.x264.DTS-HDMA.DTS.AC3-DX

    LEKTOR, DUBBING i NAPISY PL



    English : DTS-HD MA 6.1 / DTS 6.1
    Polish : AC3 (Lektor / Dubbing)

    Film ma 26 GB



    General
    Spoiler:
    File size : 25.6 GiB
    Duration : 2h 7mn
    Overall bit rate : 28.7 Mbps
    Video #1
    ID : 1
    Format : AVC
    Format/Info : Advanced Video Codec
    Format profile : Main@L4.1
    Codec ID : V_MPEG4/ISO/AVC
    Duration : 2h 7mn
    Nominal bit rate : 21.5 Mbps
    Width : 1 920 pixels
    Height : 832 pixels
    Display aspect ratio : 2.35:1
    Frame rate : 23.976 fps
    Audio #2
    ID : 2
    Format : DTS
    Format/Info : Digital Theater Systems
    Format profile : MA
    Codec ID : A_DTS
    Duration : 2h 7mn
    Bit rate mode : Variable
    Channel(s) : 7 channels
    Channel positions : Front: L C R, Surround: L C R, LFE
    Sampling rate : 48.0 KHz
    Resolution : 24 bits
    Title : English DTS-HD MA 6.1 4564 Kbps
    Audio #3
    ID : 3
    Format : DTS
    Format/Info : Digital Theater Systems
    Format profile : ES
    Codec ID : A_DTS
    Duration : 2h 7mn
    Bit rate mode : Constant
    Bit rate : 1 510 Kbps
    Channel(s) : 7 channels
    Channel positions : Front: L C R, Rear: L C R, LFE
    Sampling rate : 48.0 KHz
    Resolution : 24 bits
    Stream size : 1.34 GiB (5%)
    Title : English DTS-ES 6.1 1509 kbps
    Audio #4
    ID : 4
    Format : AC-3
    Format/Info : Audio Coding 3
    Codec ID : A_AC3
    Duration : 2h 7mn
    Bit rate mode : Constant
    Bit rate : 448 Kbps
    Channel(s) : 6 channels
    Channel positions : Front: L C R, Surround: L R, LFE
    Sampling rate : 48.0 KHz
    Stream size : 408 MiB (2%)
    Title : Polish Dubbing AC3 5.1 448kbps
    Language : Polish
    Audio #5
    ID : 5
    Format : AC-3
    Format/Info : Audio Coding 3
    Codec ID : A_AC3
    Duration : 2h 7mn
    Bit rate mode : Constant
    Bit rate : 640 Kbps
    Channel(s) : 6 channels
    Channel positions : Front: L C R, Surround: L R, LFE
    Sampling rate : 48.0 KHz
    Stream size : 583 MiB (2%)
    Title : Polish Lector AC3 5.1 640kbps
    Language : Polish
    Text #6
    ID : 6
    Format : SSA
    Codec ID : S_TEXT/SSA
    Codec ID/Info : Sub Station Alpha
    Title : Polish SSA
    Language : Polish
    Text #7
    ID : 7
    Format : UTF-8
    Codec ID : S_TEXT/UTF8
    Codec ID/Info : UTF-8 Plain Text
    Title : Polish SRT
    Language : Polish






    Subtitles: PL (SSA , SRT) wmuxowane i ososbno
    Source A/V : BD
    Kompresja RAR + 10% Danych Naprawczych
    Brak Hasła
    Plki po 1,6Gb

    FileShark :



    Linki / Download / Mirror / Pobierz:
    Linki widoczne tylko dla zarejestrowanych użytkowników.


    Gwiezdne wojny Część VI Powrót Jedi / Star Wars Episode VI Return of the Jedi (1983)
    MULTI.1080p.3D.BluRay.Half.Over-Under.x264.DTS-HDMA.DTS.AC3-DX

    LEKTOR, DUBBING i NAPISY PL



    English : DTS-HD MA 6.1 / DTS 6.1
    Polish : AC3 (Lektor / Dubbing)

    Film ma 26 GB



    General
    Spoiler:
    File size : 25.9 GiB
    Duration : 2h 14mn
    Overall bit rate : 27.5 Mbps
    Video #1
    ID : 1
    Format : AVC
    Format/Info : Advanced Video Codec
    Format profile : Main@L4.1
    Codec ID : V_MPEG4/ISO/AVC
    Duration : 2h 14mn
    Nominal bit rate : 20.3 Mbps
    Width : 1 920 pixels
    Height : 816 pixels
    Display aspect ratio : 2.35:1
    Frame rate : 23.976 fps
    Audio #2
    ID : 2
    Format : DTS
    Format/Info : Digital Theater Systems
    Format profile : MA
    Codec ID : A_DTS
    Duration : 2h 14mn
    Bit rate mode : Variable
    Channel(s) : 7 channels
    Channel positions : Front: L C R, Surround: L C R, LFE
    Sampling rate : 48.0 KHz
    Resolution : 24 bits
    Title : English DTS-HD MA 6.1 4553 Kbps
    Audio #3
    ID : 3
    Format : DTS
    Format/Info : Digital Theater Systems
    Format profile : ES
    Codec ID : A_DTS
    Duration : 2h 14mn
    Bit rate mode : Constant
    Bit rate : 1 510 Kbps
    Channel(s) : 7 channels
    Channel positions : Front: L C R, Rear: L C R, LFE
    Sampling rate : 48.0 KHz
    Resolution : 24 bits
    Stream size : 1.42 GiB (5%)
    Title : English DTS-ES 6.1 1509 kbps
    Audio #4
    ID : 4
    Format : AC-3
    Format/Info : Audio Coding 3
    Codec ID : A_AC3
    Duration : 2h 14mn
    Bit rate mode : Constant
    Bit rate : 448 Kbps
    Channel(s) : 6 channels
    Channel positions : Front: L C R, Surround: L R, LFE
    Sampling rate : 48.0 KHz
    Stream size : 432 MiB (2%)
    Title : Polish Dubbing AC3 5.1 448kbps
    Language : Polish
    Audio #5
    ID : 5
    Format : AC-3
    Format/Info : Audio Coding 3
    Codec ID : A_AC3
    Duration : 2h 14mn
    Bit rate mode : Constant
    Bit rate : 640 Kbps
    Channel(s) : 6 channels
    Channel positions : Front: L C R, Surround: L R, LFE
    Sampling rate : 48.0 KHz
    Stream size : 617 MiB (2%)
    Title : Polish Lector AC3 5.1 640kbps
    Language : Polish
    Text #6
    ID : 6
    Format : SSA
    Codec ID : S_TEXT/SSA
    Codec ID/Info : Sub Station Alpha
    Title : Polish SSA
    Language : Polish
    Text #7
    ID : 7
    Format : UTF-8
    Codec ID : S_TEXT/UTF8
    Codec ID/Info : UTF-8 Plain Text
    Title : Polish SRT
    Language : Polish






    Subtitles: PL (SSA , SRT) wmuxowane i ososbno
    Source A/V : BD
    Kompresja RAR + 10% Danych Naprawczych
    Brak Hasła
    Plki po 1,6Gb

    FileShark :



    Linki / Download / Mirror / Pobierz:
    Linki widoczne tylko dla zarejestrowanych użytkowników.
    Ostatnio edytowane przez Demonxx ; 15-03-2016 o 07:18

Strona 2 z 2 PierwszyPierwszy 12

Podobne wątki

  1. Odpowiedzi: 8
    Ostatni post / autor: 25-02-2016, 15:58
  2. Odpowiedzi: 14
    Ostatni post / autor: 25-02-2016, 15:22
  3. Odpowiedzi: 0
    Ostatni post / autor: 12-01-2009, 20:13

Uprawnienia umieszczania postów

  • Nie możesz zakładać nowych tematów
  • Nie możesz pisać wiadomości
  • Nie możesz dodawać załączników
  • Nie możesz edytować swoich postów
  •  
Page Rank Check