Pokaż wyniki od 1 do 2 z 2

Wątek: Jurassic Park Trilogy (1993-2001)

  
  1. #1
    Użytkownik Array
    Dołączył
    Jun 2015
    Posty
    740
    Podziękował/a
    0
    Otrzymał/a podziękowań 11
    Siła reputacji
    77

    Domyślnie Jurassic Park Trilogy (1993-2001)

    Jurassic Park Trilogy (1993-2001) PL.1080p.Bluray.x264.AC3-DX / Lektor PL

    60 FPS


    89562919031077833934.jpg

    gatunek: Akcja

    Jurassic Park I - Park Jurajski I (1993) PL.1080p.Bluray.x264.AC3-DX 60FPS / Lektor PL
    The Lost World Jurassic Park II - Zaginiony Świat Jurassic Park II (1997) PL.1080p.Bluray.x264.AC3-DX 60FPS / Lektor PL
    Jurassic Park III - Park Jurajski III (2001) PL.1080p.Bluray.x264.AC3-DX 60FPS / Lektor PL




    Jurassic Park III / Park Jurajski III (2001) PL.1080p.Bluray.x264.AC3-DX / Lektor PL

    60 FPS


    Spoiler:


    reżyseria: Joe Johnston
    scenariusz: Alexander Payne Jim Taylor Peter Buchman
    gatunek: Przygodowy Sci-Fi
    produkcja: USA
    premiera: 31 sierpnia 2001 (Polska) 3 lipca 2001 (świat)



    Paleontolog, Allan Grant, pomaga w poszukiwaniach nastolatka
    zagubionego na wyspie, którą opanowały dinozaury.


    General
    Spoiler:
    Format : Matroska
    File size : 10.6 GiB
    Duration : 1h 32mn
    Overall bit rate : 16.4 Mbps
    Video #1
    ID : 1
    Format : AVC
    Format/Info : Advanced Video Codec
    Format profile : High@L4.1
    Codec ID : V_MPEG4/ISO/AVC
    Duration : 1h 32mn
    Bit rate : 15.7 Mbps
    Width : 1 920 pixels
    Height : 1 040 pixels
    Display aspect ratio : 16:9
    Frame rate : 59.940 fps
    Resolution : 24 bits
    Audio #2
    ID : 2
    Format : AC-3
    Format/Info : Audio Coding 3
    Codec ID : A_AC3
    Duration : 1h 32mn
    Bit rate mode : Constant
    Bit rate : 384 Kbps
    Channel(s) : 6 channels
    Channel positions : Front: L C R, Surround: L R, LFE
    Sampling rate : 48.0 KHz
    Stream size : 254 MiB (2%)
    Langue : Polish






    Source A/V : BD

    Kompresja RAR + 10% Danych Naprawczych
    Brak Hasła
    Plki po 1,2Gb
    Pliki można pobierać na przemian
    Rapidu - FileShark :



    Linki / Download / Mirror / Pobierz:
    Linki widoczne tylko dla zarejestrowanych użytkowników.


    Zaginiony Świat Jurassic Park II / The Lost World Jurassic Park II (1997) PL.1080p.Bluray.x264.AC3-DX / Lektor PL

    60 FPS


    Spoiler:



    reżyseria: Steven Spielberg
    scenariusz: David Koepp
    gatunek: Przygodowy Sci-Fi
    produkcja: USA
    premiera: 5 września 1997 (Polska) 19 maja 1997 (świat)


    Na wyspę zamieszkałą przez dinozaury ponownie zostaje wysłana grupa naukowców.
    Prócz niebezpiecznych gadów bohaterowie spotykają zawziętych najemników, którzy chcą wywieźć kilka okazów.


    General
    Spoiler:
    Format : Matroska
    File size : 12.6 GiB
    Duration : 2h 8mn
    Overall bit rate : 14.0 Mbps
    Video #1
    ID : 1
    Format : AVC
    Format/Info : Advanced Video Codec
    Format profile : High@L4.1
    Codec ID : V_MPEG4/ISO/AVC
    Duration : 2h 8mn
    Bit rate : 13.3 Mbps
    Width : 1 920 pixels
    Height : 1 040 pixels
    Display aspect ratio : 16:9
    Frame rate : 59.940 fps
    Resolution : 24 bits
    Audio #2
    ID : 2
    Format : AC-3
    Format/Info : Audio Coding 3
    Codec ID : A_AC3
    Duration : 2h 8mn
    Bit rate mode : Constant
    Bit rate : 384 Kbps
    Channel(s) : 6 channels
    Channel positions : Front: L C R, Surround: L R, LFE
    Sampling rate : 48.0 KHz
    Stream size : 353 MiB (3%)
    Langue : Polish





    Source A/V : BD
    Kompresja RAR + 10% Danych Naprawczych
    Brak Hasła
    Plki po 1,2Gb
    Pliki można pobierać na przemian
    Rapidu - FileShark :



    Linki / Download / Mirror / Pobierz:
    Linki widoczne tylko dla zarejestrowanych użytkowników.
    Ostatnio edytowane przez Demonxx ; 17-01-2016 o 18:17

  2. #2
    Użytkownik Array
    Dołączył
    Jun 2015
    Posty
    740
    Podziękował/a
    0
    Otrzymał/a podziękowań 11
    Siła reputacji
    77

    Domyślnie

    Jurassic Park I / Park Jurajski I (1993) PL.1080p.Bluray.x264.AC3-DX / Lektor PL

    60 FPS


    Spoiler:


    reżyseria: Steven Spielberg
    scenariusz: Michael Crichton David Koepp
    gatunek: Przygodowy Sci-Fi
    produkcja: USA
    premiera: 9 czerwca 1993 (świat)


    W parku ze sklonowanymi dinozaurami, tuż przed oficjalnym otwarciem,
    dochodzi do awarii zasilania, a przebywający w nim ludzie muszą ratować życie.


    General
    Spoiler:
    Format : Matroska
    File size : 13.7 GiB
    Duration : 2h 6mn
    Overall bit rate : 15.5 Mbps
    Video #1
    ID : 1
    Format : AVC
    Format/Info : Advanced Video Codec
    Format profile : High@L4.1
    Codec ID : V_MPEG4/ISO/AVC
    Duration : 2h 6mn
    Bit rate : 14.8 Mbps
    Width : 1 920 pixels
    Height : 1 040 pixels
    Display aspect ratio : 16:9
    Frame rate : 59.940 fps
    Resolution : 24 bits
    Audio #2
    ID : 2
    Format : AC-3
    Format/Info : Audio Coding 3
    Codec ID : A_AC3
    Duration : 2h 6mn
    Bit rate mode : Constant
    Bit rate : 384 Kbps
    Channel(s) : 6 channels
    Channel positions : Front: L C R, Surround: L R, LFE
    Sampling rate : 48.0 KHz
    Stream size : 348 MiB (2%)
    Langue : Polish






    Source A/V : BD

    Kompresja RAR + 10% Danych Naprawczych
    Brak Hasła
    Plki po 1,2Gb
    Pliki można pobierać na przemian
    Rapidu - FileShark :



    Linki / Download / Mirror / Pobierz:
    Linki widoczne tylko dla zarejestrowanych użytkowników.
    [/hide]

Podobne wątki

  1. Park Jurajski / Jurassic Park (AKA JP) (1993)
    Przez DunDeeripper w dziale DVD/Blu-ray - Filmy
    Odpowiedzi: 4
    Ostatni post / autor: 25-10-2017, 23:55
  2. Park Jurajski 3 - Jurassic Park III - 2001
    Przez Jaculek w dziale AVI & DIVX
    Odpowiedzi: 7
    Ostatni post / autor: 07-09-2016, 11:57
  3. Park Jurajski / Jurassic Park (1993)
    Przez L3Q w dziale AVI & DIVX
    Odpowiedzi: 10
    Ostatni post / autor: 07-09-2016, 11:51
  4. Park Jurajski 3 / Jurassic Park III (2001)
    Przez Raval w dziale DVD/Blu-ray - Filmy
    Odpowiedzi: 1
    Ostatni post / autor: 17-01-2016, 17:38
  5. Park Jurajski / Jurassic Park (1993)
    Przez L3Q w dziale Kosz
    Odpowiedzi: 0
    Ostatni post / autor: 13-08-2008, 09:17

Uprawnienia umieszczania postów

  • Nie możesz zakładać nowych tematów
  • Nie możesz pisać wiadomości
  • Nie możesz dodawać załączników
  • Nie możesz edytować swoich postów
  •  
Page Rank Check