Pokaż wyniki od 1 do 2 z 2

Wątek: Blade Trilogy (1998-2004)

  
  1. #1
    Użytkownik Array
    Dołączył
    Jun 2015
    Posty
    740
    Podziękował/a
    0
    Otrzymał/a podziękowań 11
    Siła reputacji
    77

    Domyślnie Blade Trilogy (1998-2004)

    Blade Trilogy (1998-2004) PL.1080p.Bluray.x264.AC3-DX / Lektor PL

    60 FPS


    60636471776514993465.jpg

    Blade I / Blade Wieczny łowca I (1998) PL.1080p.Bluray.x264.AC3-DX / Lektor PL

    60 FPS


    Spoiler:


    reżyseria: Stephen Norrington
    scenariusz: David S. Goyer
    gatunek: Horror Akcja
    produkcja: USA
    premiera: 29 stycznia 1999 (Polska) 19 sierpnia 1998 (świat)


    Blade, pół-wampir, pół-człowiek, walczy z pobratymcami w obronie ludzkiej rasy.


    General
    Spoiler:
    Format : Matroska
    File size : 12.3 GiB
    Duration : 2h 0mn
    Overall bit rate : 14.6 Mbps
    Video #1
    ID : 1
    Format : AVC
    Format/Info : Advanced Video Codec
    Format profile : High@L4.1
    Codec ID : V_MPEG4/ISO/AVC
    Duration : 2h 0mn
    Bit rate : 13.7 Mbps
    Nominal bit rate : 14.0 Mbps
    Width : 1 920 pixels
    Height : 1 080 pixels
    Display aspect ratio : 16:9
    Frame rate : 59.940 fps
    Resolution : 24 bits
    Audio #2
    ID : 2
    Format : AC-3
    Format/Info : Audio Coding 3
    Codec ID : A_AC3
    Duration : 2h 0mn
    Bit rate mode : Constant
    Bit rate : 640 Kbps
    Channel(s) : 6 channels
    Channel positions : Front: L C R, Surround: L R, LFE
    Sampling rate : 48.0 KHz
    Stream size : 550 MiB (4%)
    Langue : Polish






    Source A/V : BD

    Kompresja RAR + 10% Danych Naprawczych
    Brak Hasła
    Plki po 1,2Gb
    Pliki można pobierać na przemian
    Rapidu - FileShark :



    Linki / Download / Mirror / Pobierz:
    Linki widoczne tylko dla zarejestrowanych użytkowników.


    Blade II Wieczny łowca / Blade II (2002) PL.1080p.Bluray.x264.AC3-DX / Lektor PL

    60 FPS


    Spoiler:


    reżyseria: Guillermo del Toro
    scenariusz: David S. Goyer
    gatunek: Horror Akcja
    produkcja: Niemcy USA
    premiera: 7 czerwca 2002 (Polska) 21 marca 2002 (świat)


    Blade zawiera przymierze z wampirami, by pokonać nową, zmutowaną rasę potworów.


    General
    Spoiler:
    Format : Matroska
    File size : 11.9 GiB
    Duration : 1h 56mn
    Overall bit rate : 14.6 Mbps
    Video #1
    ID : 1
    Format : AVC
    Format/Info : Advanced Video Codec
    Format profile : High@L4.1
    Codec ID : V_MPEG4/ISO/AVC
    Duration : 1h 56mn
    Bit rate : 13.7 Mbps
    Nominal bit rate : 14.0 Mbps
    Width : 1 920 pixels
    Height : 1 080 pixels
    Display aspect ratio : 16:9
    Frame rate : 59.940 fps
    Resolution : 24 bits
    Audio #2
    ID : 2
    Format : AC-3
    Format/Info : Audio Coding 3
    Codec ID : A_AC3
    Duration : 1h 56mn
    Bit rate mode : Constant
    Bit rate : 640 Kbps
    Channel(s) : 6 channels
    Channel positions : Front: L C R, Surround: L R, LFE
    Sampling rate : 48.0 KHz
    Stream size : 535 MiB (4%)
    Langue : Polish






    Source A/V : BD

    Kompresja RAR + 10% Danych Naprawczych
    Brak Hasła
    Plki po 1,2Gb
    Pliki można pobierać na przemian
    Rapidu - FileShark :



    Linki / Download / Mirror / Pobierz:
    Linki widoczne tylko dla zarejestrowanych użytkowników.
    Ostatnio edytowane przez Demonxx ; 17-01-2016 o 10:14

  2. #2
    Użytkownik Array
    Dołączył
    Jun 2015
    Posty
    740
    Podziękował/a
    0
    Otrzymał/a podziękowań 11
    Siła reputacji
    77

    Domyślnie

    Blade III Trinity / Blade Mroczna Trójca III (2004) PL.1080p.Bluray.x264.AC3-DX / Lektor PL

    60 FPS


    Spoiler:


    reżyseria: David S. Goyer
    scenariusz: David S. Goyer Marv WolfmanGene Colan
    gatunek: Horror Akcja
    produkcja: USA
    premiera: 28 stycznia 2005 (Polska) 7 grudnia 2004 (świat)



    Blade musi zmierzyć się z Draculą, którego wampiry wskrzesiły, by pokonał ich największego wroga.
    Bohater dołącza do Nocnych Łowców - młodej i niedoświadczonej grupy, eliminującej krwiopijców.


    General
    Spoiler:
    Format : Matroska
    File size : 11.3 GiB
    Duration : 1h 52mn
    Overall bit rate : 14.3 Mbps
    Video #1
    ID : 1
    Format : AVC
    Format/Info : Advanced Video Codec
    Format profile : High@L4.1
    Codec ID : V_MPEG4/ISO/AVC
    Duration : 1h 52mn
    Bit rate : 13.7 Mbps
    Nominal bit rate : 14.0 Mbps
    Width : 1 920 pixels
    Height : 808 pixels
    Display aspect ratio : 2.35:1
    Frame rate : 59.940 fps
    Resolution : 24 bits
    Audio #2
    ID : 2
    Format : AC-3
    Format/Info : Audio Coding 3
    Codec ID : A_AC3
    Duration : 1h 52mn
    Bit rate mode : Constant
    Bit rate : 320 Kbps
    Channel(s) : 6 channels
    Channel positions : Front: L C R, Surround: L R, LFE
    Sampling rate : 44.1 KHz
    Stream size : 258 MiB (2%)
    Langue : Polish






    Source A/V : BD
    Kompresja RAR + 10% Danych Naprawczych
    Brak Hasła
    Plki po 1,2Gb
    Pliki można pobierać na przemian
    Rapidu - FileShark :



    Linki / Download / Mirror / Pobierz:
    Linki widoczne tylko dla zarejestrowanych użytkowników.

Podobne wątki

  1. Blade - Wieczny łowca / Blade (1998)
    Przez Lukasz83 w dziale DVD/Blu-ray - Filmy
    Odpowiedzi: 1
    Ostatni post / autor: 17-01-2016, 09:37
  2. Blade - Wieczny łowca / Blade (1998)
    Przez Grapeshot w dziale AVI & DIVX
    Odpowiedzi: 1
    Ostatni post / autor: 03-01-2016, 11:27
  3. Blade Wieczny Łowca 1 - Blade 1 (1998)
    Przez DarekZgRed w dziale Kosz
    Odpowiedzi: 0
    Ostatni post / autor: 27-03-2008, 00:56

Uprawnienia umieszczania postów

  • Nie możesz zakładać nowych tematów
  • Nie możesz pisać wiadomości
  • Nie możesz dodawać załączników
  • Nie możesz edytować swoich postów
  •  
Page Rank Check