Pokaż wyniki od 1 do 3 z 3

Wątek: Obcy - Alien Anthology (1979-1997)

  
  1. #1
    Użytkownik Array
    Dołączył
    Jun 2015
    Posty
    740
    Podziękował/a
    0
    Otrzymał/a podziękowań 11
    Siła reputacji
    76

    Domyślnie Obcy - Alien Anthology (1979-1997)

    Obcy 8 pasażer "Nostromo"/ Alien (1979) Directors Cut MULTi.1080p.BluRay.x264.DTS.AC3-DX 60FPS/ Lektor i Napisy PL

    60 FPS




    reżyseria:Ridley Scott
    scenariusz:Dan O'Bannon
    gatunek:HorrorSci-Fi
    produkcja:USA Wielka Brytania
    premiera:14 listopada 2003 (Polska) 25 maja 1979 (świat)

    Załoga statku kosmicznego Nostromo odbiera tajemniczy sygnał i ląduje na niewielkiej planetoidzie, gdzie jeden z jej członków zostaje zaatakowany przez obcą formę życia.

    General :
    Spoiler:
    Format : Matroska
    File size : 11.8 GiB
    Duration : 1h 55mn
    Overall bit rate : 14.5 Mbps
    Video #1
    ID : 1
    Format : AVC
    Format/Info : Advanced Video Codec
    Format profile : High@L4.1
    Codec ID : V_MPEG4/ISO/AVC
    Duration : 1h 55mn
    Width : 1 920 pixels
    Height : 816 pixels
    Display aspect ratio : 2.35:1
    Frame rate : 59.940 fps
    Resolution : 24 bits
    Audio #2
    ID : 2
    Format : DTS
    Format/Info : Digital Theater Systems
    Format profile : MA
    Codec ID : A_DTS
    Duration : 1h 55mn
    Bit rate mode : Variable
    Channel(s) : 6 channels
    Channel positions : Front: L C R, Surround: L R, LFE
    Sampling rate : 48.0 KHz
    Resolution : 24 bits
    Title : English DTS-HD MA 5.1 3412 kbps
    Audio #3
    ID : 3
    Format : DTS
    Format/Info : Digital Theater Systems
    Codec ID : A_DTS
    Duration : 1h 55mn
    Bit rate mode : Constant
    Bit rate : 1 510 Kbps
    Channel(s) : 6 channels
    Channel positions : Front: L C R, Surround: L R, LFE
    Sampling rate : 48.0 KHz
    Resolution : 24 bits
    Stream size : 1.22 GiB (10%)
    Title : English DTS 5.1 1536 kbps
    Audio #4
    ID : 4
    Format : AC-3
    Format/Info : Audio Coding 3
    Codec ID : A_AC3
    Duration : 1h 55mn
    Bit rate mode : Constant
    Bit rate : 160 Kbps
    Channel(s) : 6 channels
    Channel positions : Front: L C R, Surround: L R, LFE
    Sampling rate : 48.0 KHz
    Video delay : 800ms
    Stream size : 133 MiB (1%)
    Title : Polish AC3 5.1
    Language : Polish
    Text #5
    ID : 5
    Format : SSA
    Codec ID : S_TEXT/SSA
    Codec ID/Info : Sub Station Alpha
    Title : SSA
    Language : Polish
    Text #6
    ID : 6
    Format : UTF-8
    Codec ID : S_TEXT/UTF8
    Codec ID/Info : UTF-8 Plain Text
    Title : SRT
    Language : Polish






    Subtitles: PL (SSA/SRT) wmuxowane i ososbno
    Source A/V : BluRay 1080p-pridew
    Kompresja RAR + 10% Danych Naprawczych
    Brak Hasła
    Plki po 1,2Gb
    Pliki można pobierać na przemian
    Rapidu - FileShark :



    Linki / Download / Mirror / Pobierz:
    Linki widoczne tylko dla zarejestrowanych użytkowników.


    Obcy II decydujące starcie / Aliens II (1986) Special Edition MULTi.720p.BluRay.x264.DTS-HDMA.DTS.AC3-DX / Lektor i Napisy PL

    60 FPS




    reżyseria: James Cameron
    scenariusz: James Cameron
    gatunek: Horror Sci-Fi
    produkcja: USA Wielka Brytania
    premiera: 12 sierpnia 1990 (Polska) 18 lipca 1986 (świat)


    Ripley razem z oddziałem komandosów wyrusza na pomoc
    mieszkańcom planety, na której pojawili się obcy.

    General
    Spoiler:
    Format : Matroska
    File size : 21.2 GiB
    Duration : 2h 34mn
    Overall bit rate : 19.6 Mbps
    Video #1
    ID : 1
    Format : AVC
    Format/Info : Advanced Video Codec
    Format profile : High@L4.1
    Codec ID : V_MPEG4/ISO/AVC
    Duration : 2h 34mn
    Width : 1 280 pixels
    Height : 688 pixels
    Display aspect ratio : 1.860
    Frame rate : 59.940 fps
    Resolution : 24 bits
    Audio #2
    ID : 2
    Format : DTS
    Format/Info : Digital Theater Systems
    Format profile : MA
    Codec ID : A_DTS
    Duration : 2h 34mn
    Bit rate mode : Variable
    Channel(s) : 6 channels
    Channel positions : Front: L C R, Surround: L R, LFE
    Sampling rate : 48.0 KHz
    Resolution : 24 bits
    Title : DTS-HD MA 5.1 3981 kbps
    Language : English
    Audio #3
    ID : 3
    Format : DTS
    Format/Info : Digital Theater Systems
    Codec ID : A_DTS
    Duration : 2h 34mn
    Bit rate mode : Constant
    Bit rate : 1 510 Kbps
    Channel(s) : 6 channels
    Channel positions : Front: L C R, Surround: L R, LFE
    Sampling rate : 48.0 KHz
    Resolution : 24 bits
    Stream size : 1.63 GiB (8%)
    Title : DTS 5.1 1536 kbps
    Language : English
    Audio #4
    ID : 4
    Format : AC-3
    Format/Info : Audio Coding 3
    Codec ID : A_AC3
    Duration : 2h 34mn
    Bit rate mode : Constant
    Bit rate : 160 Kbps
    Channel(s) : 6 channels
    Channel positions : Front: L C R, Surround: L R, LFE
    Sampling rate : 48.0 KHz
    Video delay : 2s 479ms
    Stream size : 177 MiB (1%)
    Title : Polish AC3 5.1 160kbps
    Language : Polish
    Text #5
    ID : 5
    Format : SSA
    Codec ID : S_TEXT/SSA
    Codec ID/Info : Sub Station Alpha
    Title : SSA
    Language : Polish
    Text #6
    ID : 6
    Format : UTF-8
    Codec ID : S_TEXT/UTF8
    Codec ID/Info : UTF-8 Plain Text
    Title : SRT
    Language : Polish






    Subtitles: PL (SSA/SRT) wmuxowane i ososbno
    Source A/V : BD
    Kompresja RAR + 10% Danych Naprawczych
    Brak Hasła
    Plki po 1,2Gb
    Pliki można pobierać na przemian
    Rapidu - FileShark :



    Linki / Download / Mirror / Pobierz:
    Linki widoczne tylko dla zarejestrowanych użytkowników.
    Obcy III / Alien III (1992) Special Edition MULTi.1080p.BluRay.x264.DTS-HDMA.DTS.AC3-DX / Lektor i Napisy PL

    60 FPS




    reżyseria:David Fincher
    scenariusz:Larry FergusonWalter HillDavid Giler
    gatunek:HorrorSci-Fi
    produkcja:USA
    premiera:18 września 1992 (Polska) 22 maja 1992 (świat)

    Ripley zostaje odnaleziona przez mieszkańców kosmicznej kolonii karnej. Wraz z kobietą na planetę przybywa obcy.

    General :
    Spoiler:
    Format : Matroska
    File size : 14.6 GiB
    Duration : 2h 24mn
    Overall bit rate : 14.4 Mbps
    Video #1
    ID : 1
    Format : AVC
    Format/Info : Advanced Video Codec
    Format profile : High@L4.1
    Codec ID : V_MPEG4/ISO/AVC
    Duration : 2h 24mn
    Width : 1 920 pixels
    Height : 816 pixels
    Display aspect ratio : 2.35:1
    Frame rate : 59.940 fps
    Resolution : 24 bits
    Audio #2
    ID : 2
    Format : DTS
    Format/Info : Digital Theater Systems
    Format profile : MA
    Codec ID : A_DTS
    Duration : 2h 24mn
    Bit rate mode : Variable
    Channel(s) : 6 channels
    Channel positions : Front: L C R, Surround: L R, LFE
    Sampling rate : 48.0 KHz
    Resolution : 24 bits
    Title : English DTS-HD MA 5.1 4145kbps
    Audio #3
    ID : 3
    Format : DTS
    Format/Info : Digital Theater Systems
    Codec ID : A_DTS
    Duration : 2h 24mn
    Bit rate mode : Constant
    Bit rate : 1 510 Kbps
    Channel(s) : 6 channels
    Channel positions : Front: L C R, Surround: L R, LFE
    Sampling rate : 48.0 KHz
    Resolution : 24 bits
    Stream size : 1.53 GiB (10%)
    Title : English DTS 5.1 1510kbps
    Audio #4
    ID : 4
    Format : AC-3
    Format/Info : Audio Coding 3
    Codec ID : A_AC3
    Duration : 2h 24mn
    Bit rate mode : Constant
    Bit rate : 160 Kbps
    Channel(s) : 6 channels
    Channel positions : Front: L C R, Surround: L R, LFE
    Sampling rate : 48.0 KHz
    Video delay : 700ms
    Stream size : 166 MiB (1%)
    Title : Polish AC3
    Language : Polish
    Text #5
    ID : 5
    Format : SSA
    Codec ID : S_TEXT/SSA
    Codec ID/Info : Sub Station Alpha
    Title : SSA
    Language : Polish
    Text #6
    ID : 6
    Format : UTF-8
    Codec ID : S_TEXT/UTF8
    Codec ID/Info : UTF-8 Plain Text
    Title : SRT
    Language : Polish






    Subtitles: PL (SSA/SRT) wmuxowane i ososbno
    Source A/V : BD
    Kompresja RAR + 10% Danych Naprawczych
    Brak Hasła
    Plki po 1,2Gb
    Pliki można pobierać na przemian
    Rapidu - FileShark :



    Linki / Download / Mirror / Pobierz:
    Linki widoczne tylko dla zarejestrowanych użytkowników.


    Obcy IV Przebudzenie / Alien IV Resurrection (1997) Special Edition MULTi.1080p.BluRay.x264.DTS-HDMA.DTS.AC3-DX / Lektor i Napisy PL

    60 FPS




    reżyseria:Jean-Pierre Jeunet
    scenariusz:Joss Whedon
    gatunek:HorrorSci-Fi
    produkcja:USA
    premiera:12 stycznia 1998 (Polska) 6 listopada 1997 (świat)


    Po ponad dwustu latach Ripley wraca do życia dzięki zaawansowanej technice klonowania, podczas której jej DNA zmieszano z materiałem genetycznym obcego.

    General :
    Spoiler:
    Format : Matroska
    File size : 12.8 GiB
    Duration : 1h 56mn
    Overall bit rate : 15.8 Mbps
    Video #1
    ID : 1
    Format : AVC
    Format/Info : Advanced Video Codec
    Format profile : High@L4.1
    Codec ID : V_MPEG4/ISO/AVC
    Duration : 1h 56mn
    Width : 1 920 pixels
    Height : 816 pixels
    Display aspect ratio : 2.35:1
    Frame rate : 59.940 fps
    Resolution : 24 bits
    Audio #2
    ID : 2
    Format : DTS
    Format/Info : Digital Theater Systems
    Format profile : MA
    Codec ID : A_DTS
    Duration : 1h 56mn
    Bit rate mode : Variable
    Channel(s) : 6 channels
    Channel positions : Front: L C R, Surround: L R, LFE
    Sampling rate : 48.0 KHz
    Resolution : 24 bits
    Title : English DTS-HD MA 5.1 4238kbps
    Audio #3
    ID : 3
    Format : DTS
    Format/Info : Digital Theater Systems
    Codec ID : A_DTS
    Duration : 1h 56mn
    Bit rate mode : Constant
    Bit rate : 1 510 Kbps
    Channel(s) : 6 channels
    Channel positions : Front: L C R, Surround: L R, LFE
    Sampling rate : 48.0 KHz
    Resolution : 24 bits
    Stream size : 1.22 GiB (10%)
    Title : English DTS 5.1 1510kbps
    Audio #4
    ID : 4
    Format : AC-3
    Format/Info : Audio Coding 3
    Codec ID : A_AC3
    Duration : 1h 56mn
    Bit rate mode : Constant
    Bit rate : 160 Kbps
    Channel(s) : 6 channels
    Channel positions : Front: L C R, Surround: L R, LFE
    Sampling rate : 48.0 KHz
    Video delay : 425ms
    Stream size : 133 MiB (1%)
    Title : Polish AC3 5.1
    Language : Polish
    Text #5
    ID : 5
    Format : SSA
    Codec ID : S_TEXT/SSA
    Codec ID/Info : Sub Station Alpha
    Title : SSA
    Language : Polish
    Text #6
    ID : 6
    Format : UTF-8
    Codec ID : S_TEXT/UTF8
    Codec ID/Info : UTF-8 Plain Text
    Title : SRT
    Language : Polish






    Subtitles: PL (SSA/SRT) wmuxowane i ososbno
    Source A/V : BD
    Kompresja RAR + 10% Danych Naprawczych
    Brak Hasła
    Plki po 1,2Gb
    Pliki można pobierać na przemian
    Rapidu - Fileshark :



    Linki / Download / Mirror / Pobierz:
    Linki widoczne tylko dla zarejestrowanych użytkowników.
    Załączone obrazki
    Ostatnio edytowane przez Demonxx ; 20-01-2016 o 16:45

  2. #2
    Użytkownik Array
    Dołączył
    Jun 2015
    Posty
    740
    Podziękował/a
    0
    Otrzymał/a podziękowań 11
    Siła reputacji
    76

    Domyślnie

    Obcy II decydujące starcie / Aliens II (1986) Special Edition MULTi.1080p.BluRay.x264.DTS-HDMA.DTS.AC3-DX / Lektor i Napisy PL

    60 FPS


    Spoiler:


    reżyseria: James Cameron
    scenariusz: James Cameron
    gatunek: Horror Sci-Fi
    produkcja: USA Wielka Brytania
    premiera: 12 sierpnia 1990 (Polska) 18 lipca 1986 (świat)



    Ripley razem z oddziałem komandosów wyrusza na pomoc
    mieszkańcom planety, na której pojawili się obcy.


    General :
    Spoiler:
    Format : Matroska
    File size : 30.4 GiB
    Duration : 2h 34mn
    Overall bit rate : 28.2 Mbps
    Video #1
    ID : 1
    Format : AVC
    Format/Info : Advanced Video Codec
    Format profile : High@L4.1
    Codec ID : V_MPEG4/ISO/AVC
    Duration : 2h 34mn
    Width : 1 920 pixels
    Height : 1 032 pixels
    Display aspect ratio : 1.860
    Frame rate : 59.940 fps
    Audio #2
    ID : 2
    Format : DTS
    Format profile : MA
    Bit rate mode : Variable
    Channel(s) : 6 channels
    Title : English DTS-HD MA 5.1 3981 kbps
    Language : English
    Audio #3
    ID : 3
    Format : DTS
    Bit rate : 1 510 Kbps
    Channel(s) : 6 channels
    Title : English DTS 5.1 1536 kbps
    Language : English
    Audio #4
    ID : 4
    Format : AC-3
    Bit rate : 160 Kbps
    Channel(s) : 6 channels
    Title : Polish AC3 5.1
    Language : Polish
    Text #5
    ID : 5
    Format : SSA
    Codec ID : S_TEXT/SSA
    Codec ID/Info : Sub Station Alpha
    Title : SSA
    Language : Polish
    Text #6
    ID : 6
    Format : UTF-8
    Codec ID : S_TEXT/UTF8
    Codec ID/Info : UTF-8 Plain Text
    Title : SRT
    Language : Polish






    Subtitles: PL (SSA/SRT) wmuxowane i ososbno
    Source A/V : BD
    Kompresja RAR + 10% Danych Naprawczych
    Brak Hasła
    Plki po 1,2Gb
    Pliki można pobierać na przemian
    Rapidu - FileShark :



    Linki / Download / Mirror / Pobierz:
    Linki widoczne tylko dla zarejestrowanych użytkowników.

  3. #3
    Użytkownik Array
    Dołączył
    Jun 2015
    Posty
    740
    Podziękował/a
    0
    Otrzymał/a podziękowań 11
    Siła reputacji
    76

    Domyślnie

    Obcy 8 pasażer "Nostromo"/ Alien (1979) Directors Cut MULTi.1080p.BluRay.x264.DTS.AC3-DX Lektor i Napisy PL


    Spoiler:


    reżyseria:Ridley Scott
    scenariusz:Dan O'Bannon
    gatunek:HorrorSci-Fi
    produkcja:USA Wielka Brytania
    premiera:14 listopada 2003 (Polska) 25 maja 1979 (świat)

    Załoga statku kosmicznego Nostromo odbiera tajemniczy sygnał i ląduje na niewielkiej planetoidzie, gdzie jeden z jej członków zostaje zaatakowany przez obcą formę życia.


    General :
    Spoiler:
    Format : Matroska
    File size : 21.3 GiB
    Duration : 1h 55mn
    Overall bit rate : 26.4 Mbps
    Video #1
    ID : 1
    Format : AVC
    Format/Info : Advanced Video Codec
    Format profile : Main@L4.1
    Codec ID : V_MPEG4/ISO/AVC
    Duration : 1h 55mn
    Nominal bit rate : 21.7 Mbps
    Width : 1 920 pixels
    Height : 816 pixels
    Display aspect ratio : 2.35:1
    Frame rate : 23.976 fps
    Audio #2
    ID : 2
    Format : DTS
    Format/Info : Digital Theater Systems
    Format profile : MA
    Codec ID : A_DTS
    Duration : 1h 55mn
    Bit rate mode : Variable
    Channel(s) : 6 channels
    Channel positions : Front: L C R, Surround: L R, LFE
    Sampling rate : 48.0 KHz
    Resolution : 24 bits
    Title : English DTS-HD MA 5.1 3412 kbps
    Language : English
    Audio #3
    ID : 3
    Format : DTS
    Format/Info : Digital Theater Systems
    Codec ID : A_DTS
    Duration : 1h 55mn
    Bit rate mode : Constant
    Bit rate : 1 510 Kbps
    Channel(s) : 6 channels
    Channel positions : Front: L C R, Surround: L R, LFE
    Sampling rate : 48.0 KHz
    Resolution : 24 bits
    Stream size : 1.22 GiB (6%)
    Title : English DTS 5.1 1536 kbps
    Language : English
    Audio #4
    ID : 4
    Format : AC-3
    Format/Info : Audio Coding 3
    Codec ID : A_AC3
    Duration : 1h 55mn
    Bit rate mode : Constant
    Bit rate : 160 Kbps
    Channel(s) : 6 channels
    Channel positions : Front: L C R, Surround: L R, LFE
    Sampling rate : 48.0 KHz
    Video delay : 1s 600ms
    Stream size : 133 MiB (1%)
    Title : Polish AC3 5.1 160 kbps
    Language : Polish
    Text #5
    ID : 5
    Format : SSA
    Codec ID : S_TEXT/SSA
    Codec ID/Info : Sub Station Alpha
    Title : SSA
    Language : Polish
    Text #6
    ID : 6
    Format : UTF-8
    Codec ID : S_TEXT/UTF8
    Codec ID/Info : UTF-8 Plain Text
    Title : SRT
    Language : Polish






    Subtitles: PL (SSA/SRT) wmuxowane i ososbno
    Source A/V : BluRay 1080p-pridew
    Kompresja RAR + 10% Danych Naprawczych
    Brak Hasła
    Plki po 1,2Gb
    Pliki można pobierać na przemian
    Rapidu - FileShark :



    Linki / Download / Mirror / Pobierz:
    Linki widoczne tylko dla zarejestrowanych użytkowników.


    Obcy II decydujące starcie / Aliens II (1986) Special Edition MULTi.1080p.BluRay.x264.DTS-HDMA.DTS.AC3-DX Lektor i Napisy PL
    Spoiler:



    reżyseria: James Cameron
    scenariusz: James Cameron
    gatunek: Horror Sci-Fi
    produkcja: USA Wielka Brytania
    premiera: 12 sierpnia 1990 (Polska) 18 lipca 1986 (świat)


    Ripley razem z oddziałem komandosów wyrusza na pomoc
    mieszkańcom planety, na której pojawili się obcy.


    General
    Spoiler:
    Format : Matroska
    File size : 21.9 GiB
    Duration : 2h 34mn
    Overall bit rate : 20.3 Mbps
    Video #1
    ID : 1
    Format : AVC
    Format/Info : Advanced Video Codec
    Format profile : Main@L4.1
    Format settings, CABAC : Yes
    Format settings, ReFrames : 4 frames
    Muxing mode : Container profile=Unknown@4.1
    Codec ID : V_MPEG4/ISO/AVC
    Duration : 2h 34mn
    Nominal bit rate : 14.9 Mbps
    Width : 1 920 pixels
    Height : 1 040 pixels
    Display aspect ratio : 16:9
    Frame rate : 23.976 fps
    Audio #2
    ID : 2
    Format : DTS
    Format/Info : Digital Theater Systems
    Format profile : MA
    Codec ID : A_DTS
    Duration : 2h 34mn
    Bit rate mode : Variable
    Channel(s) : 6 channels
    Channel positions : Front: L C R, Surround: L R, LFE
    Sampling rate : 48.0 KHz
    Resolution : 24 bits
    Title : DTS-HD MA 5.1 3981 kbps
    Language : English
    Audio #3
    ID : 3
    Format : DTS
    Format/Info : Digital Theater Systems
    Codec ID : A_DTS
    Duration : 2h 34mn
    Bit rate mode : Constant
    Bit rate : 1 510 Kbps
    Channel(s) : 6 channels
    Channel positions : Front: L C R, Surround: L R, LFE
    Sampling rate : 48.0 KHz
    Resolution : 24 bits
    Stream size : 1.63 GiB (7%)
    Title : DTS 5.1 1536 kbps
    Language : English
    Audio #4
    ID : 4
    Format : AC-3
    Format/Info : Audio Coding 3
    Codec ID : A_AC3
    Duration : 2h 34mn
    Bit rate mode : Constant
    Bit rate : 160 Kbps
    Channel(s) : 6 channels
    Channel positions : Front: L C R, Surround: L R, LFE
    Sampling rate : 48.0 KHz
    Video delay : 3s 229ms
    Stream size : 177 MiB (1%)
    Title : Polish AC3 5.1 448kbps
    Language : Polish
    Text #5
    ID : 5
    Format : SSA
    Codec ID : S_TEXT/SSA
    Codec ID/Info : Sub Station Alpha
    Title : SSA
    Language : Polish
    Text #6
    ID : 6
    Format : UTF-8
    Codec ID : S_TEXT/UTF8
    Codec ID/Info : UTF-8 Plain Text
    Title : SRT
    Language : Polish






    Subtitles: PL (SSA/SRT) wmuxowane i ososbno
    Source A/V : BD
    Kompresja RAR + 10% Danych Naprawczych
    Brak Hasła
    Plki po 1,2Gb
    Pliki można pobierać na przemian
    Rapidu - FileShark :



    Linki / Download / Mirror / Pobierz:
    Linki widoczne tylko dla zarejestrowanych użytkowników.


    Obcy III / Alien III (1992) Special Edition MULTi.1080p.BluRay.x264.DTS-HDMA.DTS.AC3-DX Lektor i Napisy PL

    Spoiler:


    reżyseria:David Fincher
    scenariusz:Larry FergusonWalter HillDavid Giler
    gatunek:HorrorSci-Fi
    produkcja:USA
    premiera:18 września 1992 (Polska) 22 maja 1992 (świat)

    Ripley zostaje odnaleziona przez mieszkańców kosmicznej kolonii karnej. Wraz z kobietą na planetę przybywa obcy.


    General :
    Spoiler:
    Format : Matroska
    File size : 21.9 GiB
    Duration : 2h 24mn
    Overall bit rate : 21.7 Mbps
    Video #1
    ID : 1
    Format : AVC
    Format/Info : Advanced Video Codec
    Format profile : Main@L4.1
    Format settings, CABAC : Yes
    Format settings, ReFrames : 4 frames
    Muxing mode : Container profile=Unknown@4.1
    Codec ID : V_MPEG4/ISO/AVC
    Duration : 2h 24mn
    Nominal bit rate : 16.0 Mbps
    Width : 1 920 pixels
    Height : 816 pixels
    Display aspect ratio : 2.35:1
    Frame rate : 23.976 fps
    Audio #2
    ID : 2
    Format : DTS
    Format/Info : Digital Theater Systems
    Format profile : MA
    Codec ID : A_DTS
    Duration : 2h 24mn
    Bit rate mode : Variable
    Channel(s) : 6 channels
    Channel positions : Front: L C R, Surround: L R, LFE
    Sampling rate : 48.0 KHz
    Resolution : 24 bits
    Title : English DTS-HD MA 5.1 4145kbps
    Language : English
    Audio #3
    ID : 3
    Format : DTS
    Format/Info : Digital Theater Systems
    Codec ID : A_DTS
    Duration : 2h 24mn
    Bit rate mode : Constant
    Bit rate : 1 510 Kbps
    Channel(s) : 6 channels
    Channel positions : Front: L C R, Surround: L R, LFE
    Sampling rate : 48.0 KHz
    Resolution : 24 bits
    Stream size : 1.53 GiB (7%)
    Title : English DTS 5.1 1510kbps
    Language : English
    Audio #4
    ID : 4
    Format : AC-3
    Format/Info : Audio Coding 3
    Codec ID : A_AC3
    Duration : 2h 24mn
    Bit rate mode : Constant
    Bit rate : 160 Kbps
    Channel(s) : 6 channels
    Channel positions : Front: L C R, Surround: L R, LFE
    Sampling rate : 48.0 KHz
    Video delay : 1s 250ms
    Stream size : 166 MiB (1%)
    Title : Polish AC3 448kbps
    Language : Polish
    Text #5
    ID : 5
    Format : SSA
    Codec ID : S_TEXT/SSA
    Codec ID/Info : Sub Station Alpha
    Title : SSA
    Language : Polish
    Text #6
    ID : 6
    Format : UTF-8
    Codec ID : S_TEXT/UTF8
    Codec ID/Info : UTF-8 Plain Text
    Title : SRT
    Language : Polish






    Subtitles: PL (SSA/SRT) wmuxowane i ososbno
    Source A/V : BD
    Kompresja RAR + 10% Danych Naprawczych
    Brak Hasła
    Plki po 1,2Gb
    Pliki można pobierać na przemian
    Rapidu - FileShark :



    Linki / Download / Mirror / Pobierz:
    Linki widoczne tylko dla zarejestrowanych użytkowników.


    Obcy IV Przebudzenie / Alien IV Resurrection (1997) Special Edition MULTi.1080p.BluRay.x264.DTS-HDMA.DTS.AC3-DX Lektor i Napisy PL

    Spoiler:


    reżyseria:Jean-Pierre Jeunet
    scenariusz:Joss Whedon
    gatunek:HorrorSci-Fi
    produkcja:USA
    premiera:12 stycznia 1998 (Polska) 6 listopada 1997 (świat)


    Po ponad dwustu latach Ripley wraca do życia dzięki zaawansowanej technice klonowania, podczas której jej DNA zmieszano z materiałem genetycznym obcego.


    General :
    Spoiler:
    Format : Matroska
    File size : 20.7 GiB
    Duration : 1h 56mn
    Overall bit rate : 25.5 Mbps
    Video #1
    ID : 1
    Format : AVC
    Format/Info : Advanced Video Codec
    Format profile : Main@L4.1
    Format settings, CABAC : Yes
    Format settings, ReFrames : 4 frames
    Muxing mode : Container profile=Unknown@4.1
    Codec ID : V_MPEG4/ISO/AVC
    Duration : 1h 56mn
    Nominal bit rate : 20.4 Mbps
    Width : 1 920 pixels
    Height : 816 pixels
    Display aspect ratio : 2.35:1
    Frame rate : 23.976 fps
    Audio #2
    ID : 2
    Format : DTS
    Format/Info : Digital Theater Systems
    Format profile : MA
    Codec ID : A_DTS
    Duration : 1h 56mn
    Bit rate mode : Variable
    Channel(s) : 6 channels
    Channel positions : Front: L C R, Surround: L R, LFE
    Sampling rate : 48.0 KHz
    Resolution : 24 bits
    Title : English DTS-HD MA 5.1 4238kbps
    Audio #3
    ID : 3
    Format : DTS
    Format/Info : Digital Theater Systems
    Codec ID : A_DTS
    Duration : 1h 56mn
    Bit rate mode : Constant
    Bit rate : 1 510 Kbps
    Channel(s) : 6 channels
    Channel positions : Front: L C R, Surround: L R, LFE
    Sampling rate : 48.0 KHz
    Resolution : 24 bits
    Stream size : 1.22 GiB (6%)
    Title : English DTS 5.1 1510kbps
    Audio #4
    ID : 4
    Format : AC-3
    Format/Info : Audio Coding 3
    Codec ID : A_AC3
    Duration : 1h 56mn
    Bit rate mode : Constant
    Bit rate : 160 Kbps
    Channel(s) : 6 channels
    Channel positions : Front: L C R, Surround: L R, LFE
    Sampling rate : 48.0 KHz
    Video delay : 425ms
    Stream size : 133 MiB (1%)
    Title : Polish AC3 5.1 448kbps
    Language : Polish
    Text #5
    ID : 5
    Format : SSA
    Codec ID : S_TEXT/SSA
    Codec ID/Info : Sub Station Alpha
    Title : SSA
    Language : Polish
    Text #6
    ID : 6
    Format : UTF-8
    Codec ID : S_TEXT/UTF8
    Codec ID/Info : UTF-8 Plain Text
    Title : SRT
    Language : Polish






    Subtitles: PL (SSA/SRT) wmuxowane i ososbno
    Source A/V : BD
    Kompresja RAR + 10% Danych Naprawczych
    Brak Hasła
    Plki po 1,2Gb
    Pliki można pobierać na przemian
    Rapidu - Fileshark :



    Linki / Download / Mirror / Pobierz:
    Linki widoczne tylko dla zarejestrowanych użytkowników.
    Ostatnio edytowane przez Demonxx ; 26-01-2016 o 10:32

Podobne wątki

  1. Obcy: Przebudzenie / Alien: Resurrection (1997)
    Przez Grapeshot w dziale AVI & DIVX
    Odpowiedzi: 1
    Ostatni post / autor: 09-10-2016, 10:39
  2. Obcy - 8. pasażer "Nostromo" / Alien (1979)
    Przez Grapeshot w dziale AVI & DIVX
    Odpowiedzi: 2
    Ostatni post / autor: 09-10-2016, 10:29
  3. Obcy 4: Przebudzenie - Alien 4 : Resurrection (1997)
    Przez *Motylek* w dziale DVD/Blu-ray - Filmy
    Odpowiedzi: 5
    Ostatni post / autor: 26-01-2016, 10:31
  4. Obcy Kolekcja / Alien Quadrilogy (1979-1997)
    Przez *Motylek* w dziale AVI & DIVX
    Odpowiedzi: 0
    Ostatni post / autor: 15-04-2015, 20:27

Uprawnienia umieszczania postów

  • Nie możesz zakładać nowych tematów
  • Nie możesz pisać wiadomości
  • Nie możesz dodawać załączników
  • Nie możesz edytować swoich postów
  •  
Page Rank Check