Wojownicy Tęczy / Warriors of the Rainbow Seediq Bale Part I & II (2011) HQ.1080p.BluRay.x264.DTS-HDMA.DTS-DX Napisy PL



reżyseria: Te-Sheng Wei
scenariusz: Te-Sheng Wei
gatunek: AkcjaDramat historyczny
produkcja: Tajwan
premiera: wrzesień 2011 (świat)


Ludzie tajwańskiego plemienia Seediq występują zbrojnie przeciwko japońskiemu zaborcy.

PART I

General
Spoiler:
Format : Matroska
File size : 21.5 GiB
Duration : 2h 23mn
Overall bit rate : 21.4 Mbps
Video #1
ID : 1
Format : AVC
Format/Info : Advanced Video Codec
Format profile : Main@L4.1
Codec ID : V_MPEG4/ISO/AVC
Duration : 2h 23mn
Nominal bit rate : 18.7 Mbps
Width : 1 920 pixels
Height : 816 pixels
Display aspect ratio : 2.35:1
Frame rate : 23.976 fps
Audio #2
ID : 2
Format : DTS
Format/Info : Digital Theater Systems
Format profile : MA
Codec ID : A_DTS
Duration : 2h 23mn
Bit rate mode : Variable
Channel(s) : 6 channels
Channel positions : Front: L C R, Surround: L R, LFE
Sampling rate : 48.0 KHz
Resolution : 16 bits
Title : Chinese DTS-HD MA 5.1 2075 kbps
Language : Chinese
Audio #3
ID : 3
Format : DTS
Format/Info : Digital Theater Systems
Codec ID : A_DTS
Duration : 2h 23mn
Bit rate mode : Constant
Bit rate : 1 510 Kbps
Channel(s) : 6 channels
Channel positions : Front: L C R, Surround: L R, LFE
Sampling rate : 48.0 KHz
Resolution : 16 bits
Stream size : 1.52 GiB (7%)
Title : Chinese DTS 5.1 1510 Kbps
Language : Chinese
Text #4
ID : 4
Format : SSA
Codec ID : S_TEXT/SSA
Codec ID/Info : Sub Station Alpha
Title : Polish SSA
Language : Polish
Text #5
ID : 5
Format : UTF-8
Codec ID : S_TEXT/UTF8
Codec ID/Info : UTF-8 Plain Text
Title : Polish SRT
Language : Polish






Subtitles: PL (SSA/SRT) wmuxowane i osobno
Source A/V : BDRemux
Kompresja RAR + 10% Danych Naprawczych
Brak Hasła
Plki po 1,6Gb
Pliki można pobierać na przemian
Rapidu - FileShark :



Linki / Download / Mirror / Pobierz:
Linki widoczne tylko dla zarejestrowanych użytkowników.

PART II

General
Spoiler:
Format : Matroska
File size : 22.3 GiB
Duration : 2h 11mn
Overall bit rate : 24.3 Mbps
Video #1
ID : 1
Format : AVC
Format/Info : Advanced Video Codec
Format profile : Main@L4.1
Codec ID : V_MPEG4/ISO/AVC
Duration : 2h 11mn
Nominal bit rate : 21.6 Mbps
Width : 1 920 pixels
Height : 816 pixels
Display aspect ratio : 2.35:1
Frame rate : 23.976 fps
Audio #2
ID : 2
Format : DTS
Format/Info : Digital Theater Systems
Format profile : MA
Codec ID : A_DTS
Duration : 2h 11mn
Bit rate mode : Variable
Channel(s) : 6 channels
Channel positions : Front: L C R, Surround: L R, LFE
Sampling rate : 48.0 KHz
Resolution : 16 bits
Title : Chinese DTS-HD MA 5.1 2175 kbps
Language : Chinese
Audio #3
ID : 3
Format : DTS
Format/Info : Digital Theater Systems
Codec ID : A_DTS
Duration : 2h 11mn
Bit rate mode : Constant
Bit rate : 1 510 Kbps
Channel(s) : 6 channels
Channel positions : Front: L C R, Surround: L R, LFE
Sampling rate : 48.0 KHz
Resolution : 16 bits
Stream size : 1.39 GiB (6%)
Title : Chinese DTS 5.1 1510 Kbps
Language : Chinese
Text #4
ID : 4
Format : SSA
Codec ID : S_TEXT/SSA
Codec ID/Info : Sub Station Alpha
Title : Polish SSA
Language : Polish
Text #5
ID : 5
Format : UTF-8
Codec ID : S_TEXT/UTF8
Codec ID/Info : UTF-8 Plain Text
Title : Polish SRT
Language : Polish






Subtitles: PL (SSA/SRT) wmuxowane i osobno
Source A/V : BDRemux
Kompresja RAR + 10% Danych Naprawczych
Brak Hasła
Plki po 1,6Gb
Pliki można pobierać na przemian
Rapidu - FileShark :



Linki / Download / Mirror / Pobierz:
Linki widoczne tylko dla zarejestrowanych użytkowników.