Mroczny las / Villmark (2003) 720p.BluRay.x264.ac3-NorD Napisy PL



reżyseria: Pal Oie
scenariusz: Christopher Grøndahl
gatunek: Horror
produkcja: Norwegia
premiera: 21 lutego 2003 (świat)


Ekipa telewizyjnego show "Real TV" wraz ze swoim szefem Gunnarem ma zamiar wkrótce zacząć produkcję owego reality show, którego uczestnicy będą musieli przetrwać w polowych warunkach. Gunnar zabiera ze sobą grupę czterech ludzi: przyjaciół Lasse i Pera, szwedzką dziewczynę Elin oraz swoją nową dziewczynę Sarę. By przetestować swoją nową ekipę, Gunnar zabiera ich do domku w lesie gdzie spędzał wakacje jeszcze jako chłopiec. Domek jest zlokalizowany daleko od cywilizacji, ukryty w ciemnych i tajemniczych lasach. Ekipa ma spędzić weekend szukając jedzenia które zaoferuje natura. Surowe warunki zabraniają posiadania papierosów i telefonów komórkowych. Kiedy Lasse i Per znajdują zwłoki w jeziorze, grupa zostaje poddana ciężkiemu testowi... Gunnar jednak nie ma zamiaru przerywać weekendu.

General
Spoiler:
Format : Matroska
File size : 3.27 GiB
Duration : 1h 24mn
Overall bit rate : 5 510 Kbps
ID : 1
Format : AVC
Format/Info : Advanced Video Codec
Format profile : High@L4.1
Format settings, CABAC : Yes
Format settings, ReFrames : 5 frames
Muxing mode : Container profile=Unknown@4.1
Codec ID : V_MPEG4/ISO/AVC
Duration : 1h 24mn
Bit rate : 4 953 Kbps
Nominal bit rate : 5 066 Kbps
Width : 1 280 pixels
Height : 720 pixels
Display aspect ratio : 16:9
Frame rate : 24.000 fps
Language : Norwegian
Audio #2
ID : 2
Format : AC-3
Format/Info : Audio Coding 3
Codec ID : A_AC3
Duration : 1h 24mn
Bit rate mode : Constant
Bit rate : 448 Kbps
Channel(s) : 6 channels
Channel positions : Front: L C R, Surround: L R, LFE
Sampling rate : 48.0 KHz
Stream size : 272 MiB (8%)
Language : Norwegian
Text #3
ID : 3
Format : UTF-8
Codec ID : S_TEXT/UTF8
Codec ID/Info : UTF-8 Plain Text
Title : Polish SRT
Language : Polish






Subtitles: PL (SRT) wmuxowane i osobno
Kompresja RAR + 10% Danych Naprawczych
Brak Hasła
Plki po 1,6Gb
Pliki można pobierać na przemian
Rapidu - FileShark :



Linki / Download / Mirror / Pobierz:
Linki widoczne tylko dla zarejestrowanych użytkowników.


Mroczny las 2 / Villmark II (2015) 720p.BluRay.x264.AC3-WASTE Napisy PL



scenariusz: Kjersti RasmussenPal Oie
gatunek: Horror
produkcja: Norwegia
premiera: 9 października 2015 (świat)


Grupa robotników zatrzymuje się w owianym złą sławą ośrodku wypoczynkowym. Mężczyźni zostają wynajęci do zbadania podziemi kompleksu, nie wiedząc, że czai się w nich śmiertelne niebezpieczeństwo.

General
Spoiler:
Format : Matroska
File size : 3.28 GiB
Duration : 1h 33mn
Overall bit rate : 5 003 Kbps
Video #1
ID : 1
Format : AVC
Format/Info : Advanced Video Codec
Format profile : High@L4.1
Codec ID : V_MPEG4/ISO/AVC
Duration : 1h 33mn
Bit rate : 4 456 Kbps
Nominal bit rate : 4 555 Kbps
Width : 1 280 pixels
Height : 536 pixels
Display aspect ratio : 2.35:1
Frame rate : 24.000 fps
Language : Norwegian
Audio #2
ID : 2
Format : AC-3
Format/Info : Audio Coding 3
Codec ID : A_AC3
Duration : 1h 33mn
Bit rate mode : Constant
Bit rate : 448 Kbps
Channel(s) : 6 channels
Channel positions : Front: L C R, Surround: L R, LFE
Sampling rate : 48.0 KHz
Stream size : 300 MiB (9%)
Title : Norwegian
Language : Norwegian
Text #3
ID : 3
Format : UTF-8
Codec ID : S_TEXT/UTF8
Codec ID/Info : UTF-8 Plain Text
Title : Polish SRT
Language : Polish






Subtitles: PL (SRT) wmuxowane i osobno
Kompresja RAR + 10% Danych Naprawczych
Brak Hasła
Plki po 1,6Gb
Pliki można pobierać na przemian
Rapidu - FileShark :



Linki / Download / Mirror / Pobierz:
Linki widoczne tylko dla zarejestrowanych użytkowników.