Pokaż wyniki od 1 do 2 z 2

Wątek: Minionki (2010 - 2015)

  
  1. #1
    Użytkownik Array
    Dołączył
    Jun 2015
    Posty
    740
    Podziękował/a
    0
    Otrzymał/a podziękowań 11
    Siła reputacji
    76

    Domyślnie Minionki (2010 - 2015)

    Jak ukraść księżyc (2010) 720p.BluRay.x264.DTS-DX Dubbing PL



    reżyseria: Chris Renaud Pierre Coffin
    scenariusz: Ken Daurio Cinco Paul
    gatunek: Animacja Familijny Komedia
    produkcja: USA
    premiera: 20 sierpnia 2010 (Polska) 20 czerwca 2010 (świat)


    Życie Gru owładniętego żądzą kradzieży Księżyca zmienią trzy urocze sierotki.

    General
    Spoiler:

    Format : Matroska
    File size : 4.37 GiB
    Duration : 1h 34mn
    Overall bit rate : 6 610 Kbps
    Video #1
    ID : 1
    Format : AVC
    Format/Info : Advanced Video Codec
    Format profile : High@L4.1
    Codec ID : V_MPEG4/ISO/AVC
    Duration : 1h 34mn
    Bit rate : 5 724 Kbps
    Nominal bit rate : 5 842 Kbps
    Width : 1 280 pixels
    Height : 688 pixels
    Display aspect ratio : 1.860
    Frame rate : 23.976 fps
    Audio #2
    ID : 2
    Format : DTS
    Format/Info : Digital Theater Systems
    Codec ID : A_DTS
    Duration : 1h 34mn
    Bit rate mode : Constant
    Bit rate : 755 Kbps
    Channel(s) : 6 channels
    Channel positions : Front: L C R, Surround: L R, LFE
    Sampling rate : 48.0 KHz
    Resolution : 24 bits
    Stream size : 511 MiB (11%)
    Language : Polish






    Source V/ A : BD


    Kompresja RAR + 10% Danych Naprawczych
    Brak Hasła
    Plki po 2Gb
    FileShark :[/b]

    Linki / Download / Mirror / Pobierz:
    Linki widoczne tylko dla zarejestrowanych użytkowników.

    Minionki rozrabiają (2013) 1080p.BluRay.x264.AC3-DX Dubbing PL



    reżyseria: Pierre Coffin Chris Renaud
    scenariusz: Ken Daurio Cinco Paul
    gatunek: Animacja Familijny Komedia
    produkcja: USA
    premiera: 12 lipca 2013 (Polska) 20 czerwca 2013 (świat)


    Tajemniczy złoczyńca zamienia słodkie Minionki w paskudne potwory, które pożerają wszystko, co stanie im na drodze. Gru musi je uratować.

    General
    Spoiler:

    Format : Matroska
    File size : 4.87 GiB
    Duration : 1h 37mn
    Overall bit rate : 7 121 Kbps
    Video #1
    ID : 1
    Format : AVC
    Format/Info : Advanced Video Codec
    Format profile : High@L4.1
    Codec ID : V_MPEG4/ISO/AVC
    Duration : 1h 37mn
    Bit rate : 6 339 Kbps
    Nominal bit rate : 6 481 Kbps
    Width : 1 920 pixels
    Height : 1 040 pixels
    Display aspect ratio : 16:9
    Frame rate : 23.976 fps
    Audio #2
    ID : 2
    Format : AC-3
    Format/Info : Audio Coding 3
    Codec ID : A_AC3
    Duration : 1h 37mn
    Bit rate mode : Constant
    Bit rate : 640 Kbps
    Channel(s) : 6 channels
    Channel positions : Front: L C R, Surround: L R, LFE
    Sampling rate : 48.0 KHz
    Stream size : 449 MiB (9%)
    Language : Polish






    Source V/ A : 1080p.BDRemux


    Kompresja RAR + 10% Danych Naprawczych
    Brak Hasła
    Plki po 2Gb
    FileShark :[/b]

    Linki / Download / Mirror / Pobierz:
    Linki widoczne tylko dla zarejestrowanych użytkowników.


    Minionki (2015) 1080p.BluRay.x264.AC3-DX Dubbing PL



    reżyseria: Kyle Balda Pierre Coffin
    scenariusz: Brian Lynch
    gatunek: Animacja Familijny Komedia
    produkcja: USA
    premiera: 26 czerwca 2015 (Polska) 11 czerwca 2015 (świat)


    Pozbawione szefa Minionki popadają w depresję. By uratować sytuację, Kevin ze Stuartem i Bobem wyruszają na poszukiwanie godnego ich służby nikczemnika.

    General
    Spoiler:

    Format : Matroska
    File size : 4.37 GiB
    Duration : 1h 30mn
    Overall bit rate : 6 879 Kbps
    Video #1
    ID : 1
    Format : AVC
    Format/Info : Advanced Video Codec
    Format profile : High@L4.1
    Codec ID : V_MPEG4/ISO/AVC
    Duration : 1h 30mn
    Bit rate : 6 102 Kbps
    Nominal bit rate : 6 237 Kbps
    Width : 1 920 pixels
    Height : 1 040 pixels
    Display aspect ratio : 16:9
    Frame rate : 23.976 fps
    Audio #2
    ID : 2
    Format : AC-3
    Format/Info : Audio Coding 3
    Codec ID : A_AC3
    Duration : 1h 30mn
    Bit rate mode : Constant
    Bit rate : 640 Kbps
    Channel(s) : 6 channels
    Channel positions : Front: L C R, Surround: L R, LFE
    Sampling rate : 48.0 KHz
    Stream size : 416 MiB (9%)






    Source V/ A : BD


    Kompresja RAR + 10% Danych Naprawczych
    Brak Hasła
    Plki po 2Gb
    FileShark :[/b]

    Linki / Download / Mirror / Pobierz:
    Linki widoczne tylko dla zarejestrowanych użytkowników.
    Ostatnio edytowane przez Demonxx ; 24-12-2015 o 07:39

  2. #2
    Użytkownik Array
    Dołączył
    Jun 2015
    Posty
    740
    Podziękował/a
    0
    Otrzymał/a podziękowań 11
    Siła reputacji
    76

    Domyślnie

    Minionki (2015) 1080p.3D.BluRay.Half.Over-Under.x264.AC3-DX Dubbing PL
    Spoiler:



    reżyseria: Kyle Balda Pierre Coffin
    scenariusz: Brian Lynch
    gatunek: Animacja Familijny Komedia
    produkcja: USA
    premiera: 26 czerwca 2015 (Polska) 11 czerwca 2015 (świat)


    Pozbawione szefa Minionki popadają w depresję. By uratować sytuację, Kevin ze Stuartem i Bobem wyruszają na poszukiwanie godnego ich służby nikczemnika.


    General
    Spoiler:
    Format : Matroska
    File size : 10.5 GiB
    Duration : 1h 30mn
    Overall bit rate : 16.5 Mbps
    Video #1
    ID : 1
    Format : AVC
    Format profile : High@L4.1
    Duration : 1h 30mn
    Bit rate : 15.5 Mbps
    Width : 1 920 pixels
    Height : 1 080 pixels
    Frame rate : 23.976 fps
    Audio #2
    ID : 2
    Format : AC-3
    Bit rate : 640 Kbps
    Channel(s) : 6 channels
    Sampling rate : 48.0 KHz






    Source V/ A : BD
    Kompresja RAR + 10% Danych Naprawczych
    Brak Hasła
    Plki po 1,6Gb

    FileShark :


    Linki / Download / Mirror / Pobierz:
    Linki widoczne tylko dla zarejestrowanych użytkowników.
    Minionki rozrabiają (2013) 1080p.3D.BluRay.Half.Over-Under.x264.AC3-DX Dubbing PL

    Spoiler:


    reżyseria: Pierre Coffin Chris Renaud
    scenariusz: Ken Daurio Cinco Paul
    gatunek: Animacja Familijny Komedia
    produkcja: USA
    premiera: 12 lipca 2013 (Polska) 20 czerwca 2013 (świat)


    Tajemniczy złoczyńca zamienia słodkie Minionki w paskudne potwory, które pożerają wszystko, co stanie im na drodze. Gru musi je uratować.


    General
    Spoiler:
    Format : Matroska
    File size : 6.46 GiB
    Duration : 1h 38mn
    Overall bit rate : 9 428 Kbps
    Video #1
    Format : AVC
    Format profile : High@L4.1
    Width : 1 920 pixels
    Height : 1 080 pixels
    Frame rate : 23.976 fps
    Audio #2
    Format : AC-3
    Codec ID : A_AC3
    Bit rate : 640 Kbps
    Channel(s) : 6 channels
    Sampling rate : 48.0 KHz
    Language : Polish






    Source V/ A : BD

    Kompresja RAR + 10% Danych Naprawczych
    Brak Hasła
    Plki po 1,6Gb
    FileShark :



    Linki / Download / Mirror / Pobierz:
    Linki widoczne tylko dla zarejestrowanych użytkowników.


    Jak ukraść księżyc / Despicable Me (2010) 1080p.3D.BluRay.Half.Over-Under.x264.AC3-DX Dubbing PL

    Spoiler:


    reżyseria: Chris Renaud Pierre Coffin
    scenariusz: Ken Daurio Cinco Paul
    gatunek: Animacja Familijny Komedia
    produkcja: USA
    premiera: 20 sierpnia 2010 (Polska) 20 czerwca 2010 (świat)


    Życie Gru owładniętego żądzą kradzieży Księżyca zmienią trzy urocze sierotki.


    General
    Spoiler:
    Format : Matroska
    File size : 4.68 GiB
    Duration : 1h 34mn
    Overall bit rate : 7 083 Kbps
    Video #1
    Format : AVC
    Format profile : Main@L4.0
    Width : 1 920 pixels
    Height : 1 080 pixels
    Display aspect ratio : 16:9
    Frame rate : 23.976 fps
    Audio #2
    Format : AC-3
    Bit rate : 448 Kbps
    Channel(s) : 6 channels
    Sampling rate : 48.0 KHz
    Language : Polish






    Source V/ A : BD

    Kompresja RAR + 10% Danych Naprawczych
    Brak Hasła
    Plki po 2Gb
    FileShark :



    Linki / Download / Mirror / Pobierz:
    Linki widoczne tylko dla zarejestrowanych użytkowników.

Podobne wątki

  1. Minionki / The Minions (2015)
    Przez markus22 w dziale BAJKI
    Odpowiedzi: 30
    Ostatni post / autor: 09-12-2016, 13:00
  2. Minionki / The Minions (2015)
    Przez *Motylek* w dziale DVD/Blu-ray - Animacja
    Odpowiedzi: 34
    Ostatni post / autor: 05-10-2016, 11:18
  3. Minionki (2015)
    Przez Demonxx w dziale DVD/Blu-ray - Animacja
    Odpowiedzi: 1
    Ostatni post / autor: 19-02-2016, 12:24
  4. Minionki / The Minions (2015)
    Przez *Motylek* w dziale DVD/Blu-ray - Animacja
    Odpowiedzi: 2
    Ostatni post / autor: 05-11-2015, 02:22
  5. Minionki / The Minions (2015)
    Przez *Motylek* w dziale BAJKI
    Odpowiedzi: 2
    Ostatni post / autor: 27-08-2015, 18:27

Uprawnienia umieszczania postów

  • Nie możesz zakładać nowych tematów
  • Nie możesz pisać wiadomości
  • Nie możesz dodawać załączników
  • Nie możesz edytować swoich postów
  •  
statystyka Page Rank Check