Lakier do włosów / Hairspray (1988) 1080p.BluRay.x264.DTS-DX / Napisy PL



reżyseria: John Waters
scenariusz: John Waters
gatunek: Muzyczny Czarna komedia
produkcja: USA
premiera: luty 1988 (świat)


"The Corny Collins Show" to zdecydowanie ulubiony program muzyczny dwóch przyjaciółek z podwórka, Tracy i Penny.
Kiedy w programie najnowsze tańce prezentuje elitarna grupa nastolatków, Tracy postanawia za wszelką cenę dostać się do tego właśnie zespołu.
Po ciężkich staraniach dziewczyna zostaje przyjęta do popularnego teamu i robi oszałamiającą karierę.
Tymczasem Tracy wzbudza podziw i głębokie zainteresowanie przystojnego Linka.
Zazdrosna Amber postanawia zrobić wszystko, aby jak najbardziej upokorzyć rywalkę.

General
Spoiler:
Format : Matroska
File size : 6.55 GiB
Duration : 1h 31mn
Overall bit rate : 10.2 Mbps
Video #1
ID : 1
Format : AVC
Format/Info : Advanced Video Codec
Format profile : High@L4.1
Codec ID : V_MPEG4/ISO/AVC
Duration : 1h 31mn
Bit rate : 8 501 Kbps
Nominal bit rate : 8 711 Kbps
Width : 1 920 pixels
Height : 1 080 pixels
Display aspect ratio : 16:9
Frame rate : 23.976 fps
Resolution : 24 bits
Audio #2
ID : 2
Format : DTS
Format/Info : Digital Theater Systems
Codec ID : A_DTS
Duration : 1h 31mn
Bit rate mode : Constant
Bit rate : 1 510 Kbps
Channel(s) : 6 channels
Channel positions : Front: L C R, Surround: L R, LFE
Sampling rate : 48.0 KHz
Resolution : 24 bits
Stream size : 992 MiB (15%)
Title : English DTS 5.1 1510 Kbps
Language : English
Text #3
ID : 3
Format : SSA
Codec ID : S_TEXT/SSA
Codec ID/Info : Sub Station Alpha
Title : Polish SSA
Language : Polish
Text #4
ID : 4
Format : UTF-8
Codec ID : S_TEXT/UTF8
Codec ID/Info : UTF-8 Plain Text
Title : Polish SRT
Language : Polish


Spoiler:







Napisy PL Wmuxowane
Source A/V : 1080p.BDRemux (RUS)

Kompresja RAR + 10% Danych Naprawczych
Brak Hasła
Plki po 1,7Gb
Pliki można pobierać na przemian

Rapidu - Storbit - FileShark :


Linki / Download / Mirror / Pobierz:
Linki widoczne tylko dla zarejestrowanych użytkowników.

Lakier do włosów / Hairspray (2007) 1080p.BluRay.x264.DTS-HDMA.DTS-DX / Napisy PL



reżyseria: Adam Shankman
scenariusz: Leslie Dixon
gatunek: Komedia Musical
produkcja: USA Wielka Brytania
premiera: 28 września 2007 (Polska) 13 lipca 2007 (świat)


Puszysta nastolatka Tracy Turnblad (Nikki Blonsky) wierzy, że jej przeznaczeniem jest tańczyć boogie.
Dziewczyna marzy o występie w znanym telewizyjnym widowisku.
Autor show, przypadkiem obecny na szkolnej potańcówce, zachwyca się popisami Tracy i zaprasza ją do występu w programie.
Nastolatka szybko zdobywa sympatię widzów, pozostawiając w cieniu dotychczasową gwiazdę widowiska, Amber von Tussle (Brittany Snow).
Podstępna Amber nie zamierza jednak składać broni i postanawia wyeliminować rywalkę.
Lecz jej spisek wywołuje tylko wielki chaos.

General
Spoiler:
Format : Matroska
File size : 16.4 GiB
Duration : 1h 56mn
Overall bit rate : 20.2 Mbps
Video #1
ID : 1
Format : AVC
Format/Info : Advanced Video Codec
Format profile : Main@L4.1
Codec ID : V_MPEG4/ISO/AVC
Duration : 1h 56mn
Nominal bit rate : 13.2 Mbps
Width : 1 920 pixels
Height : 816 pixels
Display aspect ratio : 2.35:1
Frame rate : 23.976 fps
Resolution : 24 bits
Audio #2
ID : 2
Format : DTS
Format/Info : Digital Theater Systems
Format profile : MA
Codec ID : A_DTS
Duration : 1h 56mn
Bit rate mode : Variable
Channel(s) : 8 channels
Channel positions : Front: L C R, Surround: L R, Wide: L R, LFE
Sampling rate : 48.0 KHz
Resolution : 24 bits
Title : English DTS-HD MA 7.1 5579 Kbps
Language : English
Audio #3
ID : 3
Format : DTS
Format/Info : Digital Theater Systems
Codec ID : A_DTS
Duration : 1h 56mn
Bit rate mode : Constant
Bit rate : 1 510 Kbps
Channel(s) : 6 channels
Channel positions : Front: L C R, Surround: L R, LFE
Sampling rate : 48.0 KHz
Resolution : 24 bits
Stream size : 1.22 GiB (7%)
Title : English DTS 5.1 1510 Kbps
Language : English
Text #4
ID : 4
Format : SSA
Codec ID : S_TEXT/SSA
Codec ID/Info : Sub Station Alpha
Title : Polish SSA
Language : Polish
Text #5
ID : 5
Format : UTF-8
Codec ID : S_TEXT/UTF8
Codec ID/Info : UTF-8 Plain Text
Title : Polish SRT
Language : Polish


Spoiler:







Napisy PL Wmuxowane
Source A/V : 1080p.BDRemux (RUS)

Kompresja RAR + 10% Danych Naprawczych
Brak Hasła
Plki po 1,7Gb
Pliki można pobierać na przemian

Rapidu - Storbit - FileShark :


Linki / Download / Mirror / Pobierz:
Linki widoczne tylko dla zarejestrowanych użytkowników.