Pokaż wyniki od 1 do 3 z 3

Wątek: Hobbit - The Hobbit (2012 - 2014)

  
  1. #1
    Użytkownik Array
    Dołączył
    Jun 2015
    Posty
    740
    Podziękował/a
    0
    Otrzymał/a podziękowań 11
    Siła reputacji
    76

    Thumbs up Hobbit - The Hobbit (2012 - 2014)

    Hobbit Bitwa Pięciu Armii / The Hobbit The Battle of the Five Armies (2014) Multi.1080p.BluRay.x264.DTS-HDMA.DTS.AC3-DX / Dubbing i Napisy PL

    60 FPS




    reżyseria: Peter Jackson
    scenariusz: Fran Walsh Philippa Boyens Guillermo del Toro Peter Jackson
    gatunek: Fantasy Przygodowy
    produkcja: Nowa Zelandia USA
    premiera: 25 grudnia 2014 (Polska) 1 grudnia 2014 (świat)


    Krasnoludy z Ereboru odzyskują ojczyznę, ściągając gniew smoka. Wolne istoty Śródziemia łączą siły przeciwko Sauronowi, który wysyła legiony orków na Samotną Górę.

    General
    Spoiler:
    Format : Matroska
    File size : 18.7 GiB
    Duration : 2h 24mn
    Overall bit rate : 18.5 Mbps
    Video #1
    ID : 1
    Format : AVC
    Format/Info : Advanced Video Codec
    Format profile : Main@L4.1
    Codec ID : V_MPEG4/ISO/AVC
    Duration : 2h 24mn
    Width : 1 920 pixels
    Height : 800 pixels
    Display aspect ratio : 2.40:1
    Frame rate : 59.940 fps
    Resolution : 24 bits
    Audio #2
    ID : 2
    Format : DTS
    Format/Info : Digital Theater Systems
    Format profile : MA
    Codec ID : A_DTS
    Duration : 2h 24mn
    Bit rate mode : Variable
    Channel(s) : 8 channels
    Channel positions : Front: L C R, Surround: L C C R, LFE
    Sampling rate : 48.0 KHz
    Resolution : 24 bits
    Title : English DTS HD-MA 7.1 / 4811Kbps
    Audio #3
    ID : 3
    Format : DTS
    Format/Info : Digital Theater Systems
    Codec ID : A_DTS
    Duration : 2h 24mn
    Bit rate mode : Constant
    Bit rate : 1 510 Kbps
    Channel(s) : 6 channels
    Channel positions : Front: L C R, Surround: L R, LFE
    Sampling rate : 48.0 KHz
    Resolution : 24 bits
    Video delay : 11ms
    Stream size : 1.52 GiB (8%)
    Title : English DTS 5.1 / 1510 Kbps
    Audio #4
    ID : 4
    Format : AC-3
    Format/Info : Audio Coding 3
    Codec ID : A_AC3
    Duration : 2h 24mn
    Bit rate mode : Constant
    Bit rate : 448 Kbps
    Channel(s) : 6 channels
    Channel positions : Front: L C R, Surround: L R, LFE
    Sampling rate : 48.0 KHz
    Stream size : 463 MiB (2%)
    Title : Polish DUBBING AC3 5.1 / 448 Kbps
    Language : Polish
    Text #5
    ID : 5
    Format : SSA
    Codec ID : S_TEXT/SSA
    Codec ID/Info : Sub Station Alpha
    Title : SSA
    Language : Polish
    Text #6
    ID : 6
    Format : UTF-8
    Codec ID : S_TEXT/UTF8
    Codec ID/Info : UTF-8 Plain Text
    Title : SRT
    Language : Polish
    Text #7
    ID : 7
    Format : UTF-8
    Codec ID : S_TEXT/UTF8
    Codec ID/Info : UTF-8 Plain Text
    Title : SRT Polish Audio do kwesti nietłumaczonych
    Language : Polish





    Subtitles: PL (SSA , SRT) wmuxowane i ososbno
    PL (SRT) SRT do kwesti nietłumaczonych tylko wmuxowane
    Source A/V : BD

    Kompresja RAR + 10% Danych Naprawczych
    Brak Hasła
    Plki po 1,2Gb
    Pliki można pobierać na przemian

    Rapidu - FileShark :


    Linki / Download / Mirror / Pobierz:
    Linki widoczne tylko dla zarejestrowanych użytkowników.

    Hobbit Pustkowie Smauga / The Hobbit The Desolation of Smaug (2013) Extended Edition Multi.1080p.BluRay.x264.DTS-HDMA.DTS.AC3-DX / Lektor i Napisy PL

    60 FPS


    Spoiler:


    reżyseria: Peter Jackson
    scenariusz: Guillermo del Toro Peter Jackson Fran WalshP hilippa Boyens
    gatunek: Fantasy Przygodowy
    produkcja: Nowa Zelandia USA
    premiera: 25 grudnia 2013 (Polska) 2 grudnia 2013 (świat)


    Hobbit Bilbo Baggins razem z Gandalfem oraz trzynastoma krasnoludami zmierza do legowiska smoka Smauga. Bohaterowie chcą pokonać bestię i odebrać jej złoto, które ukradła.


    General
    Spoiler:
    Format : Matroska
    File size : 21.5 GiB
    Duration : 3h 6mn
    Overall bit rate : 16.5 Mbps
    Video #1
    ID : 1
    Format : AVC
    Format/Info : Advanced Video Codec
    Format profile : High@L4.1
    Codec ID : V_MPEG4/ISO/AVC
    Duration : 3h 6mn
    Width : 1 920 pixels
    Height : 800 pixels
    Display aspect ratio : 2.40:1
    Frame rate : 59.940 fps
    Resolution : 24 bits
    Audio #2
    ID : 2
    Format : DTS
    Format/Info : Digital Theater Systems
    Format profile : MA
    Codec ID : A_DTS
    Duration : 3h 6mn
    Bit rate mode : Variable
    Channel(s) : 8 channels
    Channel positions : Front: L C R, Surround: L C C R, LFE
    Sampling rate : 48.0 KHz
    Resolution : 24 bits
    Title : English DTS-HD MA 7.1 / 4867 Kbps
    Language : English
    Audio #3
    ID : 3
    Format : DTS
    Format/Info : Digital Theater Systems
    Codec ID : A_DTS
    Duration : 3h 6mn
    Bit rate mode : Constant
    Bit rate : 1 510 Kbps
    Channel(s) : 6 channels
    Channel positions : Front: L C R, Surround: L R, LFE
    Sampling rate : 48.0 KHz
    Resolution : 24 bits
    Stream size : 1.97 GiB (9%)
    Title : English DTS 5.1 / 1510 Kbps
    Language : English
    Audio #4
    ID : 4
    Format : AC-3
    Format/Info : Audio Coding 3
    Codec ID : A_AC3
    Duration : 3h 6mn
    Bit rate mode : Constant
    Bit rate : 448 Kbps
    Channel(s) : 6 channels
    Channel positions : Front: L C R, Surround: L R, LFE
    Sampling rate : 48.0 KHz
    Stream size : 598 MiB (3%)
    Title : Polish Lektor AC3 5.1 448kbps
    Language : Polish
    Text #5
    ID : 5
    Format : SSA
    Codec ID : S_TEXT/SSA
    Codec ID/Info : Sub Station Alpha
    Title : SSA
    Language : Polish
    Text #6
    ID : 6
    Format : UTF-8
    Codec ID : S_TEXT/UTF8
    Codec ID/Info : UTF-8 Plain Text
    Title : SRT
    Language : Polish





    Subtitles: PL (SSA , SRT) wmuxowane i ososbno
    Source A/V : BD
    Kompresja RAR + 10% Danych Naprawczych
    Brak Hasła
    Plki po 1,2Gb
    Pliki można pobierać na przemian
    Rapidu - FileShark :


    Linki / Download / Mirror / Pobierz:
    Linki widoczne tylko dla zarejestrowanych użytkowników.
    Ostatnio edytowane przez Demonxx ; 15-01-2016 o 10:02

  2. #2
    Użytkownik Array
    Dołączył
    Jun 2015
    Posty
    740
    Podziękował/a
    0
    Otrzymał/a podziękowań 11
    Siła reputacji
    76

    Domyślnie

    Hobbit Niezwykła podróż / The Hobbit An Unexpected Journey (2012) Extended Edition Multi.1080p.BluRay.x264.DTS.AC3-DX / Lektor i Napisy PL

    60 FPS


    Spoiler:


    reżyseria: Peter Jackson
    scenariusz: Guillermo del Toro Peter Jackson Fran Walsh Philippa Boyens
    gatunek: Fantasy Przygodowy
    produkcja: Nowa Zelandia USA
    premiera: 25 grudnia 2012 (Polska) 28 listopada 2012 (świat)


    Hobbit Bilbo Baggins wyrusza w niebezpieczną podroż, by wraz z czarodziejem Gandalfem i trzynastoma krasnoludami pokonać smoka Smauga.


    General
    Spoiler:
    Format : Matroska
    File size : 22.9 GiB
    Duration : 3h 2mn
    Overall bit rate : 17.9 Mbps
    Video #1
    ID : 1
    Format : AVC
    Format/Info : Advanced Video Codec
    Format profile : High@L4.1
    Codec ID : V_MPEG4/ISO/AVC
    Duration : 3h 2mn
    Bit rate : 15.6 Mbps
    Nominal bit rate : 16.0 Mbps
    Width : 1 920 pixels
    Height : 800 pixels
    Display aspect ratio : 2.40:1
    Frame rate : 59.940 fps
    Resolution : 24 bits
    Audio #2
    ID : 2
    Format : DTS
    Format/Info : Digital Theater Systems
    Codec ID : A_DTS
    Duration : 3h 2mn
    Bit rate mode : Constant
    Bit rate : 1 510 Kbps
    Channel(s) : 6 channels
    Channel positions : Front: L C R, Surround: L R, LFE
    Sampling rate : 48.0 KHz
    Resolution : 24 bits
    Stream size : 1.92 GiB (8%)
    Title : DTS 5.1
    Audio #3
    ID : 3
    Format : AC-3
    Format/Info : Audio Coding 3
    Codec ID : A_AC3
    Duration : 3h 2mn
    Bit rate mode : Constant
    Bit rate : 448 Kbps
    Channel(s) : 6 channels
    Channel positions : Front: L C R, Surround: L R, LFE
    Sampling rate : 48.0 KHz
    Stream size : 585 MiB (2%)
    Title : Polish AC3 Lektor
    Language : Polish
    Text #4
    ID : 4
    Format : SSA
    Codec ID : S_TEXT/SSA
    Codec ID/Info : Sub Station Alpha
    Title : SSA
    Language : Polish
    Text #5
    ID : 5
    Format : UTF-8
    Codec ID : S_TEXT/UTF8
    Codec ID/Info : UTF-8 Plain Text
    Title : SRT
    Language : Polish





    Subtitles: PL (SSA , SRT) wmuxowane i ososbno
    Source A/V : BD

    Kompresja RAR + 10% Danych Naprawczych
    Brak Hasła
    Plki po 1,2Gb
    Pliki można pobierać na przemian

    Rapidu - FileShark :


    Linki / Download / Mirror / Pobierz:
    Linki widoczne tylko dla zarejestrowanych użytkowników.

  3. #3
    Użytkownik Array
    Dołączył
    Jun 2015
    Posty
    740
    Podziękował/a
    0
    Otrzymał/a podziękowań 11
    Siła reputacji
    76

    Domyślnie

    Hobbit Niezwykła podróż 3D / The Hobbit An Unexpected Journey 3D (2012) Extended Edition 1080p.3D.BluRay.Half.Over-Under.x264.AC3-DX Lektor PL


    General
    Spoiler:
    Format : Matroska
    File size : 11.6 GiB
    Duration : 3h 2mn
    Overall bit rate : 9 125 Kbps
    Video #1
    Format : AVC
    Format profile : Main@L4.0
    Width : 1 918 pixels
    Height : 1 080 pixels
    Frame rate : 23.976 fps
    Audio #2
    Format : AC-3
    Bit rate : 448 Kbps
    Channel(s) : 6 channels
    Sampling rate : 48.0 KHz
    Language : Polish






    Source A/V : BD
    Kompresja RAR + 10% Danych Naprawczych
    Brak Hasła
    Plki po 1,6Gb

    FileShark :



    Linki / Download / Mirror / Pobierz:
    Linki widoczne tylko dla zarejestrowanych użytkowników.
    Hobbit Pustkowie Smauga 3D / The Hobbit The Desolation of Smaug 3D (2013) Extended Edition 1080p.3D.BluRay.Half.Over-Under.x264.AC3-DX Lektor PL

    General
    Spoiler:
    Format : Matroska
    File size : 11.6 GiB
    Duration : 3h 6mn
    Overall bit rate : 8 910 Kbps
    Video #1
    Format : AVC
    Format profile : Main@L4.0
    Width : 1 920 pixels
    Height : 1 080 pixels
    Frame rate : 23.976 fps
    Audio #2
    Format : AC-3
    Bit rate : 448 Kbps
    Channel(s) : 6 channels
    Sampling rate : 48.0 KHz
    Language : Polish






    Source A/V : BD
    Kompresja RAR + 10% Danych Naprawczych
    Brak Hasła
    Plki po 1,6Gb

    FileShark :



    Linki / Download / Mirror / Pobierz:
    Linki widoczne tylko dla zarejestrowanych użytkowników.
    Hobbit Bitwa Pięciu Armii 3D / The Hobbit The Battle of the Five Armies 3D (2014) Extended Edition 1080p.3D.BluRay.Half.Over-Under.x264.AC3-DX Lektor PL


    General
    Spoiler:
    Format : Matroska
    File size : 14.8 GiB
    Duration : 2h 44mn
    Overall bit rate : 12.9 Mbps
    Video #1
    Format : AVC
    Format profile : High@L4.1
    Width : 1 920 pixels
    Height : 800 pixels
    Frame rate : 23.976 fps
    Audio #2
    Format : AC-3
    Bit rate : 448 Kbps
    Channel(s) : 6 channels
    Sampling rate : 48.0 KHz
    Language : Polish






    Source A/V : BD
    Kompresja RAR + 10% Danych Naprawczych
    Brak Hasła
    Plki po 1,6Gb

    FileShark :



    Linki / Download / Mirror / Pobierz:
    Linki widoczne tylko dla zarejestrowanych użytkowników.

Podobne wątki

  1. Odpowiedzi: 45
    Ostatni post / autor: 08-10-2016, 17:10
  2. Odpowiedzi: 1
    Ostatni post / autor: 05-10-2016, 17:06
  3. Hobbit Niezwykła podróż / Hobbit An Unexpected Journey (2012)
    Przez prusva w dziale DVD/Blu-ray - Filmy
    Odpowiedzi: 71
    Ostatni post / autor: 04-03-2016, 19:49
  4. Odpowiedzi: 16
    Ostatni post / autor: 15-11-2015, 17:10

Uprawnienia umieszczania postów

  • Nie możesz zakładać nowych tematów
  • Nie możesz pisać wiadomości
  • Nie możesz dodawać załączników
  • Nie możesz edytować swoich postów
  •  
statystyka Page Rank Check