Wa Pei / Hua pi / Painted Skin (2008) 720p.BluRay.x264.DTS-DX / Napisy PL




reżyseria: Andy Wing-Keung Chin Danny Ko Gordon Chan
scenariusz: Gordon Chan Abe Kwong Ho Leung Lau
gatunek: Dramat Fantasy
produkcja: Chiny Hongkong Singapur
premiera: 25 września 2008 (świat)


2000 lat temu, na przełomie panowania dynastii Qin i Han, generał Sheng Wang (Kun Chen) w pogoni za bandą rabusiów prowadzi swój oddział na pustynię.
Z rąk bandytów ratuje piękną dziewczynę, Wei Xiao (Xun Zhou), i zabiera ja do swojego zamku.
Uroda dziewczyny oczarowuje każdego, kto ją tylko zobaczy, nikt więc nie podejrzewa, że tak naprawdę jest demonem w ludzkim ciele.
Aby zachować swoją urodę i ludzką formę, Wei Xiao musi żywić się ludzkimi sercami,
które pomaga zdobywać jej Yi Xiao (Yuwu Qi), zakochany w niej demon, który tak jak ona potrafi przybierać ludzką postać.

General
Spoiler:
Format : Matroska
File size : 4.36 GiB
Duration : 1h 58mn
Overall bit rate : 5 284 Kbps
Video #1
ID : 1
Format : AVC
Format/Info : Advanced Video Codec
Format profile : Main@L4.1
Codec ID : V_MPEG4/ISO/AVC
Duration : 1h 58mn
Bit rate : 3 669 Kbps
Nominal bit rate : 3 772 Kbps
Width : 1 280 pixels
Height : 544 pixels
Display aspect ratio : 2.35:1
Frame rate : 24.000 fps
Resolution : 24 bits
Audio #2
ID : 2
Format : DTS
Format/Info : Digital Theater Systems
Codec ID : A_DTS
Duration : 1h 58mn
Bit rate mode : Constant
Bit rate : 1 510 Kbps
Channel(s) : 6 channels
Channel positions : Front: L C R, Surround: L R, LFE
Sampling rate : 48.0 KHz
Resolution : 24 bits
Stream size : 1.25 GiB (29%)
Language : Chinese
Text #3
ID : 3
Format : SSA
Codec ID : S_TEXT/SSA
Codec ID/Info : Sub Station Alpha
Language : Polish









Subtitles: PL (SSA) wmuxowane i ososbno
Source A/V : 1080p.BluRay.x264-WiKi

Kompresja RAR + 10% Danych Naprawczych
Brak Hasła
Plki po 1,7Gb
Pliki można pobierać na przemian

Storbit - Rapidu - FileShark - LunaticFiles - CatShare:


Linki / Download / Mirror / Pobierz:
Linki widoczne tylko dla zarejestrowanych użytkowników.



Wa Pei 2 / Hua Pi 2 / Painted Skin 2 The Resurrection (2012) 720p.BluRay.x264.DTS-DX / Napisy PL




reżyseria: Wuershan
scenariusz: Ran Ping Jia-Nan Ran
gatunek: Dramat FantasyAkcja
produkcja: Chiny
premiera: 28 czerwca 2012 (świat)


Film jest kontynuacją „Painted Skin” z 2008 roku. Zgodnie z pradawną tradycją ludową demonowi zabiera sto lat by osiągnąć ludzką formę.
Nawet wtedy, nie mając ludzkiego serca, demon nie może doświadczać prawdziwych bólów i namiętności istnienia.
Jednakże, jest legenda że jeśli czyste ludzkie serce swobodnie zostanie zaoferowane demonowi, to może zostać śmiertelnikiem i doświadczyć prawdziwego życia...

General
Spoiler:
Format : Matroska
File size : 4.27 GiB
Duration : 2h 11mn
Overall bit rate : 4 645 Kbps
Video #1
ID : 1
Format : AVC
Format/Info : Advanced Video Codec
Format profile : Main@L3.1
Codec ID : V_MPEG4/ISO/AVC
Duration : 2h 11mn
Bit rate : 3 043 Kbps
Nominal bit rate : 3 190 Kbps
Width : 1 280 pixels
Height : 544 pixels
Display aspect ratio : 2.35:1
Frame rate : 23.976 fps
Resolution : 24 bits
Audio #2
ID : 2
Format : DTS
Format/Info : Digital Theater Systems
Codec ID : A_DTS
Duration : 2h 11mn
Bit rate mode : Constant
Bit rate : 1 510 Kbps
Channel(s) : 6 channels
Channel positions : Front: L C R, Surround: L R, LFE
Sampling rate : 48.0 KHz
Resolution : 16 bits
Video delay : 10ms
Stream size : 1.39 GiB (33%)
Language : Chinese
Text #3
ID : 3
Format : SSA
Codec ID : S_TEXT/SSA
Codec ID/Info : Sub Station Alpha
Language : Polish









Subtitles: PL (SSA) wmuxowane i ososbno
Source A/V : 1080p.BluRay.x264-WiKi

Kompresja RAR + 10% Danych Naprawczych
Brak Hasła
Plki po 1,7Gb
Pliki można pobierać na przemian

Storbit - Rapidu - FileShark - LunaticFiles - CatShare:


Linki / Download / Mirror / Pobierz:
Linki widoczne tylko dla zarejestrowanych użytkowników.