Pokaż wyniki od 1 do 8 z 8

Wątek: Resident Evil ( 2002 - 2012 )

  
  1. #1
    Użytkownik Array
    Dołączył
    Jun 2015
    Posty
    740
    Podziękował/a
    0
    Otrzymał/a podziękowań 11
    Siła reputacji
    76

    Domyślnie Resident Evil ( 2002 - 2012 )

    Resident Evil ( 2002 - 2012 ) Kolekcja BluRay.720p.x264.AC3-DX Lektor PL



    [b]Gatunek: Horror, Akcja

    Resident Evil (2002) BluRay.720p.x264.AC3-DX Lektor PL
    Resident Evil 2 Apokalipsa / Resident Evil Apocalypse (2004) BluRay.720p.x264.AC3-DX Lektor PL
    Resident Evil Zagłada / Resident Evil Extinction (2007) BluRay.720p.x264.AC3-DX Lektor PL
    Resident Evil Afterlife (2010) BluRay.720p.x264.AC3-DX Lektor PL
    Resident Evil Retrybucja / Resident Evil: Retribution (2012) BluRay.720p.x264.AC3-DX Lektor PL

    Resident Evil (2002)

    Gatunek: Horror, Akcja
    Reżyseria: Paul W.S. Anderson
    Scenaruisz: Paul W.S. Anderson
    Produkcja: Francja, Niemcy, Wielka Brytania
    Czas trwania: 1h 40 min

    Thriller science-fiction oparty na serii popularnych gier komputerowych "Resident Evil". Na początku XXI wieku The Umbrella Corporation staje się największą firmą komercyjną w Stanach Zjednoczonych. W 9 na 10 domach znajdują się jej produkty. Wszędzie ma wpływy polityczne i finansowe. Oficjalnie jest wiodącym w świecie dostawcą technologii komputerowych i produktów medycznych. Natomiast ani opinia publiczna, ani pracownicy nie wiedzą, że główne dochody firma ma dzięki pracy nad technologiami... wojskowym, eksperymentami genetycznym i bronią biologiczną. W supertajnym podziemnym laboratorium firmy nazywanym The Hive trwają prace nad niezwykle niebezpiecznym wirusem. Kiedy ze zbitej próbówki wirus dostanie się do systemu wentylacyjnego, Red Queen - główny komputer, odetnie drogę ucieczki pracującym w laboratorium naukowcom. Wszyscy giną. Przynajmniej tak to na początku wygląda. Do laboratorium przybywa elitarna grupa komandosów. Mają trzy godziny, żeby izolować wirus i uratować przed nim świat. Przeszkadzać im będzie nie tylko Red Queen, ale naukowcy, których wirus zmutował w coś na kształt zombie oraz przerażający, mutujący wciąż potwór Licker.

    General
    Spoiler:
    Format : Matroska
    File size : 3.84 GiB
    Duration : 1h 40mn
    Overall bit rate : 5 471 Kbps
    Video #1
    ID : 1
    Format : AVC
    Format/Info : Advanced Video Codec
    Format profile : Main@L3.1
    Codec ID : V_MPEG4/ISO/AVC
    Duration : 1h 40mn
    Bit rate : 4 914 Kbps
    Nominal bit rate : 5 181 Kbps
    Width : 1 280 pixels
    Height : 688 pixels
    Display aspect ratio : 1.860
    Frame rate : 23.976 fps
    Resolution : 24 bits
    Audio #2
    ID : 2
    Format : AC-3
    Format/Info : Audio Coding 3
    Codec ID : A_AC3
    Duration : 1h 40mn
    Bit rate mode : Constant
    Bit rate : 448 Kbps
    Channel(s) : 6 channels
    Channel positions : Front: L C R, Surround: L R, LFE
    Sampling rate : 48.0 KHz
    Stream size : 322 MiB (8%)
    Language : Polish


    Spoiler:





    Source A/V : BluRay.1080p.DualAudio.DTS.AC3.-TL

    Kompresja RAR + 10% Danych Naprawczych
    Brak Hasła
    Plki po 1,7Gb
    Pliki można pobierać na przemian

    Storbit - Rapidu - FileShark - LunaticFiles :



    Linki / Download / Mirror / Pobierz:
    Linki widoczne tylko dla zarejestrowanych użytkowników.

    Resident Evil 2 Apokalipsa / Resident Evil Apocalypse (2004)

    Gatunek: Horror, Akcja
    Reżyseria: Aleksander Witt
    Scenaruisz: Paul W.S. Anderson
    Produkcja: Francja, Kanada, Niemcy, Wielka Brytania
    Czas trwania: 1h 33 min

    Po sukcesie, jaki odniósł "Resident Evil", przyszła kolej na drugi odcinek przygód agentki walczącej z zombie. W centrum Raccoon City niewielka grupa ludzi walczy o przetrwanie. Wśród nich znajduje się Alice (Milla Jovovich). Przedzierając się przez hordy żywych trupów bohaterowie usiłują uciec z miasta. Ich jedyną nadzieją jest dr. Charles Ashford. Zgadza się on im pomóc, pod warunkiem, że odnajdą jego córkę. A w samym mieście pojawia się genetycznie zmodyfikowana istota, o kryptonimie "Nemezis"...

    General
    Spoiler:
    Format : Matroska
    File size : 3.84 GiB
    Duration : 1h 33mn
    Overall bit rate : 5 865 Kbps
    Video #1
    ID : 1
    Format : AVC
    Format/Info : Advanced Video Codec
    Format profile : Main@L3.1
    Codec ID : V_MPEG4/ISO/AVC
    Duration : 1h 33mn
    Bit rate : 5 300 Kbps
    Nominal bit rate : 5 583 Kbps
    Width : 1 280 pixels
    Height : 528 pixels
    Display aspect ratio : 2.40:1
    Frame rate : 23.976 fps
    Resolution : 24 bits
    Audio #2
    ID : 2
    Format : AC-3
    Format/Info : Audio Coding 3
    Codec ID : A_AC3
    Duration : 1h 33mn
    Bit rate mode : Constant
    Bit rate : 448 Kbps
    Channel(s) : 6 channels
    Channel positions : Front: L C R, Surround: L R, LFE
    Sampling rate : 48.0 KHz
    Stream size : 301 MiB (8%)
    Language : Polish


    Spoiler:





    Source A/V : BluRay.1080p.DualAudio.DTS.AC3.-TL

    Kompresja RAR + 10% Danych Naprawczych
    Brak Hasła
    Plki po 1,7Gb
    Pliki można pobierać na przemian

    Storbit - Rapidu - FileShark - LunaticFiles :



    Linki / Download / Mirror / Pobierz:
    Linki widoczne tylko dla zarejestrowanych użytkowników.

    Resident Evil Zagłada / Resident Evil Extinction (2007)

    Gatunek: Horror, Akcja
    Reżyseria: Russell Mulcahy
    Scenaruisz: Paul W.S. Anderson
    Produkcja: Australia, Francja, USA, Niemcy, Wielka Brytania
    Czas trwania: 1h 34 min

    Milla Jovovich wraca w trzeciej odsłonie Resident Evil! Ten przepełniony akcją i niesamowitymi efektami specjalnymi film rozgrywa się tym razem na pustyni w Nevadzie gdzie rozgrywa się największa w historii walka pomiędzy zombie a ludźmi! Las Vegas to rozrywka i słońce... No tak, przynajmniej jest tu jeszcze sło?ce... Miasto wygląda jak reszta pustyni, a jedynie kilka zardzewiałych znaków przypomina o czasach minionej świetności! Tłumy żądnych krwi zombie szukają świeżych ofiar. By ocalić...

    General
    Spoiler:
    Format : Matroska
    File size : 3.79 GiB
    Duration : 1h 34mn
    Overall bit rate : 5 773 Kbps
    Video #1
    ID : 1
    Format : AVC
    Format/Info : Advanced Video Codec
    Format profile : Main@L3.1
    Codec ID : V_MPEG4/ISO/AVC
    Duration : 1h 33mn
    Bit rate : 5 210 Kbps
    Nominal bit rate : 5 565 Kbps
    Width : 1 280 pixels
    Height : 544 pixels
    Display aspect ratio : 2.35:1
    Frame rate : 23.976 fps
    Resolution : 24 bits
    Audio #2
    ID : 2
    Format : AC-3
    Format/Info : Audio Coding 3
    Codec ID : A_AC3
    Duration : 1h 34mn
    Bit rate mode : Constant
    Bit rate : 448 Kbps
    Channel(s) : 6 channels
    Channel positions : Front: L C R, Surround: L R, LFE
    Sampling rate : 48.0 KHz
    Stream size : 302 MiB (8%)
    Language : Polish


    Spoiler:





    Source A/V : BluRay.1080p.DualAudio.DTS.AC3.-TL

    Kompresja RAR + 10% Danych Naprawczych
    Brak Hasła
    Plki po 1,7Gb
    Pliki można pobierać na przemian

    Storbit - Rapidu - FileShark - LunaticFiles :



    Linki / Download / Mirror / Pobierz:
    Linki widoczne tylko dla zarejestrowanych użytkowników.

    Resident Evil Afterlife (2010)

    Gatunek: Horror, Akcja
    Reżyseria: Paul W.S. Anderson
    Scenaruisz: Paul W.S. Anderson
    Produkcja: Francja, USA, Niemcy, Wielka Brytania
    Czas trwania: 1h 36 min

    W świecie spustoszonym przez wirus zamieniający ofiary w żywy trupy Alice kontynuuje swoją podróż. Bohaterka odnajduje ocalałych ludzi i stara się zapewnić im bezpiecze?stwo. Gdy walka na śmierć i życie z korporacją Umbrella sięga szczytu, bohaterka otrzymuje pomoc od starego przyjaciela. Nowy przywódca, który obiecuje bezpieczną przysta?, wiedzie ocalałych do Los Angeles. Jednak miasto okazuje się być oblegane przez tysiące zombie. Alice i jej towarzysze znajdują się o krok od śmiertelnej pułapki.

    General
    Spoiler:
    Format : Matroska
    File size : 3.92 GiB
    Duration : 1h 36mn
    Overall bit rate : 5 791 Kbps
    Video #1
    ID : 1
    Format : AVC
    Format/Info : Advanced Video Codec
    Format profile : Main@L3.1
    Codec ID : V_MPEG4/ISO/AVC
    Duration : 1h 36mn
    Bit rate : 5 227 Kbps
    Nominal bit rate : 5 392 Kbps
    Width : 1 280 pixels
    Height : 528 pixels
    Display aspect ratio : 2.40:1
    Frame rate : 23.976 fps
    Resolution : 24 bits
    Audio #2
    ID : 2
    Format : AC-3
    Format/Info : Audio Coding 3
    Codec ID : A_AC3
    Duration : 1h 36mn
    Bit rate mode : Constant
    Bit rate : 448 Kbps
    Channel(s) : 6 channels
    Channel positions : Front: L C R, Surround: L R, LFE
    Sampling rate : 48.0 KHz
    Stream size : 310 MiB (8%)
    Language : Polish


    Spoiler:





    Source A/V : BluRay.1080p.DualAudio.DTS.AC3.-TL

    Kompresja RAR + 10% Danych Naprawczych
    Brak Hasła
    Plki po 1,7Gb
    Pliki można pobierać na przemian

    Storbit - Rapidu - FileShark - LunaticFiles :



    Linki / Download / Mirror / Pobierz:
    Linki widoczne tylko dla zarejestrowanych użytkowników.

    Resident Evil Retrybucja / Resident Evil: Retribution (2012)

    reżyseria: Paul W.S. Anderson
    scenariusz: Paul W.S. Anderson
    gatunek: Horror Akcja
    produkcja: Francja Kanada Niemcy USA
    premiera: 14 września 2012 (Polska) 3 września 2012 (świat)

    U boku ruchu oporu Alice walczy z korporacją Umbrella i nieumarłymi.

    General
    Spoiler:
    Format : Matroska
    File size : 3.77 GiB
    Duration : 1h 35mn
    Overall bit rate : 5 644 Kbps
    Video #1
    ID : 1
    Format : AVC
    Format/Info : Advanced Video Codec
    Format profile : Main@L3.1
    Codec ID : V_MPEG4/ISO/AVC
    Duration : 1h 35mn
    Bit rate : 5 084 Kbps
    Nominal bit rate : 5 469 Kbps
    Width : 1 280 pixels
    Height : 528 pixels
    Display aspect ratio : 2.40:1
    Frame rate : 23.976 fps
    Resolution : 24 bits
    Audio #2
    ID : 2
    Format : AC-3
    Format/Info : Audio Coding 3
    Codec ID : A_AC3
    Duration : 1h 35mn
    Bit rate mode : Constant
    Bit rate : 448 Kbps
    Channel(s) : 6 channels
    Channel positions : Front: L C R, Surround: L R, LFE
    Sampling rate : 48.0 KHz
    Stream size : 306 MiB (8%)
    Language : Polish


    Spoiler:





    Source A/V : BD

    Kompresja RAR + 10% Danych Naprawczych
    Brak Hasła
    Plki po 1,7Gb
    Pliki można pobierać na przemian

    Storbit - Rapidu - FileShark - LunaticFiles :



    Linki / Download / Mirror / Pobierz:
    Linki widoczne tylko dla zarejestrowanych użytkowników.
    Ostatnio edytowane przez pawel ; 03-09-2015 o 17:03

  2. #2
    Użytkownik Array
    Dołączył
    Jun 2015
    Posty
    740
    Podziękował/a
    0
    Otrzymał/a podziękowań 11
    Siła reputacji
    76

    Domyślnie

    Resident Evil (2002-2012) Kolekcja Multi.BluRay.1080p.x264.DTS-HDMA.DTS.AC3-DX Lektor i Napisy PL

    Spoiler:



    Gatunek: Horror, Akcja

    Resident Evil (2002)
    Multi.BluRay.1080p.x264.DTS-HDMA.DTS.AC3-DX
    Lektor i Napisy PL


    Gatunek: Horror, Akcja
    Reżyseria: Paul W.S. Anderson
    Scenaruisz: Paul W.S. Anderson
    Produkcja: Francja, Niemcy, Wielka Brytania
    Czas trwania: 1h 40 min

    Thriller science-fiction oparty na serii popularnych gier komputerowych "Resident Evil". Na początku XXI wieku The Umbrella Corporation staje się największą firmą komercyjną w Stanach Zjednoczonych. W 9 na 10 domach znajdują się jej produkty. Wszędzie ma wpływy polityczne i finansowe. Oficjalnie jest wiodącym w świecie dostawcą technologii komputerowych i produktów medycznych. Natomiast ani opinia publiczna, ani pracownicy nie wiedzą, że główne dochody firma ma dzięki pracy nad technologiami... wojskowym, eksperymentami genetycznym i bronią biologiczną. W supertajnym podziemnym laboratorium firmy nazywanym The Hive trwają prace nad niezwykle niebezpiecznym wirusem. Kiedy ze zbitej próbówki wirus dostanie się do systemu wentylacyjnego, Red Queen - główny komputer, odetnie drogę ucieczki pracującym w laboratorium naukowcom. Wszyscy giną. Przynajmniej tak to na początku wygląda. Do laboratorium przybywa elitarna grupa komandosów. Mają trzy godziny, żeby izolować wirus i uratować przed nim świat. Przeszkadzać im będzie nie tylko Red Queen, ale naukowcy, których wirus zmutował w coś na kształt zombie oraz przerażający, mutujący wciąż potwór Licker.

    General
    Spoiler:
    Format : Matroska
    File size : 20.7 GiB
    Duration : 1h 40mn
    Overall bit rate : 29.5 Mbps
    Video #1
    ID : 1
    Format : AVC
    Format/Info : Advanced Video Codec
    Format profile : Main@L4.1
    Codec ID : V_MPEG4/ISO/AVC
    Duration : 1h 40mn
    Nominal bit rate : 24.3 Mbps
    Width : 1 920 pixels
    Height : 1 040 pixels
    Display aspect ratio : 16:9
    Frame rate : 23.976 fps
    Resolution : 24 bits
    Audio #2
    ID : 2
    Format : DTS
    Format/Info : Digital Theater Systems
    Format profile : MA
    Codec ID : A_DTS
    Duration : 1h 40mn
    Bit rate mode : Variable
    Channel(s) : 6 channels
    Channel positions : Front: L C R, Surround: L R, LFE
    Sampling rate : 48.0 KHz
    Resolution : 24 bits
    Title : English DTS-HD MA 5.1 / 4463 Kbps / 48 kHz / 24-bit
    Language : English
    Audio #3
    ID : 3
    Format : DTS
    Format/Info : Digital Theater Systems
    Codec ID : A_DTS
    Duration : 1h 40mn
    Bit rate mode : Constant
    Bit rate : 1 510 Kbps
    Channel(s) : 6 channels
    Channel positions : Front: L C R, Surround: L R, LFE
    Sampling rate : 48.0 KHz
    Resolution : 24 bits
    Stream size : 1.06 GiB (5%)
    Title : English DTS 5.1 / 1510 Kbps / 48 kHz / 24-bit
    Language : English
    Audio #4
    ID : 4
    Format : AC-3
    Format/Info : Audio Coding 3
    Codec ID : A_AC3
    Duration : 1h 40mn
    Bit rate mode : Constant
    Bit rate : 448 Kbps
    Channel(s) : 6 channels
    Channel positions : Front: L C R, Surround: L R, LFE
    Sampling rate : 48.0 KHz
    Stream size : 322 MiB (2%)
    Title : Polish AC3 5.1 448 Kbps
    Language : Polish
    Text #5
    ID : 5
    Format : SSA
    Codec ID : S_TEXT/SSA
    Codec ID/Info : Sub Station Alpha
    Title : Polish SSA
    Language : Polish
    Text #6
    ID : 6
    Format : UTF-8
    Codec ID : S_TEXT/UTF8
    Codec ID/Info : UTF-8 Plain Text
    Title : Polish SRT
    Language : Polish







    Source A/V : BD

    Kompresja RAR + 10% Danych Naprawczych
    Brak Hasła
    Plki po 1,2Gb
    Pliki można pobierać na przemian

    Rapidu - FileShark :



    Linki / Download / Mirror / Pobierz:
    Linki widoczne tylko dla zarejestrowanych użytkowników.

    Resident Evil 2 Apokalipsa / Resident Evil Apocalypse (2004)
    Multi.BluRay.1080p.x264.DTS-HDMA.DTS.AC3-DX
    Lektor i Napisy PL


    Gatunek: Horror, Akcja
    Reżyseria: Aleksander Witt
    Scenaruisz: Paul W.S. Anderson
    Produkcja: Francja, Kanada, Niemcy, Wielka Brytania
    Czas trwania: 1h 33 min

    Po sukcesie, jaki odniósł "Resident Evil", przyszła kolej na drugi odcinek przygód agentki walczącej z zombie. W centrum Raccoon City niewielka grupa ludzi walczy o przetrwanie. Wśród nich znajduje się Alice (Milla Jovovich). Przedzierając się przez hordy żywych trupów bohaterowie usiłują uciec z miasta. Ich jedyną nadzieją jest dr. Charles Ashford. Zgadza się on im pomóc, pod warunkiem, że odnajdą jego córkę. A w samym mieście pojawia się genetycznie zmodyfikowana istota, o kryptonimie "Nemezis"...

    General
    Spoiler:
    Format : Matroska
    File size : 18.7 GiB
    Duration : 1h 33mn
    Overall bit rate : 28.5 Mbps
    Video #1
    ID : 1
    Format : AVC
    Format/Info : Advanced Video Codec
    Format profile : Main@L4.1
    Codec ID : V_MPEG4/ISO/AVC
    Duration : 1h 33mn
    Bit rate : 26.0 Mbps
    Width : 1 920 pixels
    Height : 800 pixels
    Display aspect ratio : 2.40:1
    Frame rate : 23.976 fps
    Resolution : 24 bits
    Audio #2
    ID : 2
    Format : DTS
    Format/Info : Digital Theater Systems
    Codec ID : A_DTS
    Duration : 1h 33mn
    Bit rate mode : Constant
    Bit rate : 1 510 Kbps
    Channel(s) : 6 channels
    Channel positions : Front: L C R, Surround: L R, LFE
    Sampling rate : 48.0 KHz
    Resolution : 24 bits
    Stream size : 1 013 MiB (5%)
    Title : English DTS 5.1 / 1536 kbps
    Language : English
    Audio #3
    ID : 3
    Format : AC-3
    Format/Info : Audio Coding 3
    Codec ID : A_AC3
    Duration : 1h 33mn
    Bit rate mode : Constant
    Bit rate : 448 Kbps
    Channel(s) : 6 channels
    Channel positions : Front: L C R, Surround: L R, LFE
    Sampling rate : 48.0 KHz
    Stream size : 301 MiB (2%)
    Title : olish AC3 5.1 448 Kbps
    Language : Polish
    Text #4
    ID : 4
    Format : SSA
    Codec ID : S_TEXT/SSA
    Codec ID/Info : Sub Station Alpha
    Title : Polish SSA
    Language : Polish
    Text #5
    ID : 5
    Format : UTF-8
    Codec ID : S_TEXT/UTF8
    Codec ID/Info : UTF-8 Plain Text
    Title : Polish SRT
    Language : Polish







    Source A/V : BD

    Kompresja RAR + 10% Danych Naprawczych
    Brak Hasła
    Plki po 1,2Gb
    Pliki można pobierać na przemian

    Rapidu - FileShark :



    Linki / Download / Mirror / Pobierz:
    Linki widoczne tylko dla zarejestrowanych użytkowników.

    Resident Evil Zagłada / Resident Evil Extinction (2007)
    Multi.BluRay.1080p.x264.DTS-HDMA.DTS.AC3-DX
    Lektor i Napisy PL


    Gatunek: Horror, Akcja
    Reżyseria: Russell Mulcahy
    Scenaruisz: Paul W.S. Anderson
    Produkcja: Australia, Francja, USA, Niemcy, Wielka Brytania
    Czas trwania: 1h 34 min

    Milla Jovovich wraca w trzeciej odsłonie Resident Evil! Ten przepełniony akcją i niesamowitymi efektami specjalnymi film rozgrywa się tym razem na pustyni w Nevadzie gdzie rozgrywa się największa w historii walka pomiędzy zombie a ludźmi! Las Vegas to rozrywka i słońce... No tak, przynajmniej jest tu jeszcze sło?ce... Miasto wygląda jak reszta pustyni, a jedynie kilka zardzewiałych znaków przypomina o czasach minionej świetności! Tłumy żądnych krwi zombie szukają świeżych ofiar. By ocalić...

    General
    Spoiler:
    Format : Matroska
    File size : 19.9 GiB
    Duration : 1h 34mn
    Overall bit rate : 30.2 Mbps
    Video #1
    ID : 1
    Format : AVC
    Format/Info : Advanced Video Codec
    Format profile : Main@L4.1
    Codec ID : V_MPEG4/ISO/AVC
    Duration : 1h 34mn
    Width : 1 920 pixels
    Height : 800 pixels
    Display aspect ratio : 2.40:1
    Frame rate : 23.976 fps
    Resolution : 24 bits
    Audio #2
    ID : 2
    Format : DTS
    Format/Info : Digital Theater Systems
    Format profile : MA
    Codec ID : A_DTS
    Duration : 1h 34mn
    Bit rate mode : Variable
    Channel(s) : 6 channels
    Channel positions : Front: L C R, Surround: L R, LFE
    Sampling rate : 48.0 KHz
    Resolution : 24 bits
    Title : English DTS-HD MA 5.1 / 3117.00 Kbps / 48 kHz / 24-bit
    Language : English
    Audio #3
    ID : 3
    Format : DTS
    Format/Info : Digital Theater Systems
    Codec ID : A_DTS
    Duration : 1h 34mn
    Bit rate mode : Constant
    Bit rate : 1 510 Kbps
    Channel(s) : 6 channels
    Channel positions : Front: L C R, Surround: L R, LFE
    Sampling rate : 48.0 KHz
    Resolution : 24 bits
    Stream size : 1 016 MiB (5%)
    Title : English DTS 5.1 / 1510Kbps/ 48 kHz / 24-bit
    Language : English
    Audio #4
    ID : 4
    Format : AC-3
    Format/Info : Audio Coding 3
    Codec ID : A_AC3
    Duration : 1h 34mn
    Bit rate mode : Constant
    Bit rate : 448 Kbps
    Channel(s) : 6 channels
    Channel positions : Front: L C R, Surround: L R, LFE
    Sampling rate : 48.0 KHz
    Stream size : 302 MiB (1%)
    Title : Polish AC3 5.1 448 Kbps
    Language : Polish
    Text #5
    ID : 5
    Format : SSA
    Codec ID : S_TEXT/SSA
    Codec ID/Info : Sub Station Alpha
    Title : Polish SSA
    Language : Polish
    Text #6
    ID : 6
    Format : UTF-8
    Codec ID : S_TEXT/UTF8
    Codec ID/Info : UTF-8 Plain Text
    Title : Polish SRT
    Language : Polish







    Source A/V : BD

    Kompresja RAR + 10% Danych Naprawczych
    Brak Hasła
    Plki po 1,2Gb
    Pliki można pobierać na przemian

    Rapidu - FileShark :



    Linki / Download / Mirror / Pobierz:
    Linki widoczne tylko dla zarejestrowanych użytkowników.

    Ostatnio edytowane przez Demonxx ; 13-10-2015 o 12:08

  3. #3
    Użytkownik Array
    Dołączył
    Jun 2015
    Posty
    740
    Podziękował/a
    0
    Otrzymał/a podziękowań 11
    Siła reputacji
    76

    Domyślnie



    Resident Evil Afterlife (2010)
    Multi.BluRay.1080p.x264.DTS-HDMA.DTS.AC3-DX
    Lektor i Napisy PL


    Gatunek: Horror, Akcja
    Reżyseria: Paul W.S. Anderson
    Scenaruisz: Paul W.S. Anderson
    Produkcja: Francja, USA, Niemcy, Wielka Brytania
    Czas trwania: 1h 36 min

    W świecie spustoszonym przez wirus zamieniający ofiary w żywy trupy Alice kontynuuje swoją podróż. Bohaterka odnajduje ocalałych ludzi i stara się zapewnić im bezpiecze?stwo. Gdy walka na śmierć i życie z korporacją Umbrella sięga szczytu, bohaterka otrzymuje pomoc od starego przyjaciela. Nowy przywódca, który obiecuje bezpieczną przysta?, wiedzie ocalałych do Los Angeles. Jednak miasto okazuje się być oblegane przez tysiące zombie. Alice i jej towarzysze znajdują się o krok od śmiertelnej pułapki.

    General
    Spoiler:
    Format : Matroska
    File size : 20.8 GiB
    Duration : 1h 36mn
    Overall bit rate : 30.7 Mbps
    Video #1
    ID : 1
    Format : AVC
    Format/Info : Advanced Video Codec
    Format profile : Main@L4.1
    Codec ID : V_MPEG4/ISO/AVC
    Duration : 1h 36mn
    Width : 1 920 pixels
    Height : 800 pixels
    Display aspect ratio : 2.40:1
    Frame rate : 23.976 fps
    Resolution : 24 bits
    Audio #2
    ID : 2
    Format : DTS
    Format/Info : Digital Theater Systems
    Format profile : MA
    Codec ID : A_DTS
    Duration : 1h 36mn
    Bit rate mode : Variable
    Channel(s) : 6 channels
    Channel positions : Front: L C R, Surround: L R, LFE
    Sampling rate : 48.0 KHz
    Resolution : 16 bits
    Title : English: DTS-HD MA 5.1 / 2410.00 Kbps / 48 kHz/16-bit
    Language : English
    Audio #3
    ID : 3
    Format : DTS
    Format/Info : Digital Theater Systems
    Codec ID : A_DTS
    Duration : 1h 36mn
    Bit rate mode : Constant
    Bit rate : 1 510 Kbps
    Channel(s) : 6 channels
    Channel positions : Front: L C R, Surround: L R, LFE
    Sampling rate : 48.0 KHz
    Resolution : 16 bits
    Stream size : 1.02 GiB (5%)
    Title : English DTS 5.1 1510 Kbps
    Language : English
    Audio #4
    ID : 4
    Format : AC-3
    Format/Info : Audio Coding 3
    Codec ID : A_AC3
    Duration : 1h 36mn
    Bit rate mode : Constant
    Bit rate : 448 Kbps
    Channel(s) : 6 channels
    Channel positions : Front: L C R, Surround: L R, LFE
    Sampling rate : 48.0 KHz
    Stream size : 310 MiB (1%)
    Title : Polish AC3 5.1 448 Kbps
    Language : Polish
    Text #5
    ID : 5
    Format : SSA
    Codec ID : S_TEXT/SSA
    Codec ID/Info : Sub Station Alpha
    Title : Polish SSA
    Language : Polish
    Text #6
    ID : 6
    Format : UTF-8
    Codec ID : S_TEXT/UTF8
    Codec ID/Info : UTF-8 Plain Text
    Title : Polish SRT
    Language : Polish







    Source A/V : BD

    Kompresja RAR + 10% Danych Naprawczych
    Brak Hasła
    Plki po 1,2Gb
    Pliki można pobierać na przemian

    Rapidu - FileShark :



    Linki / Download / Mirror / Pobierz:
    Linki widoczne tylko dla zarejestrowanych użytkowników.

    Resident Evil Retrybucja / Resident Evil: Retribution (2012)
    Multi.BluRay.1080p.x264.DTS-HDMA.DTS.AC3-DX
    Lektor i Napisy PL


    reżyseria: Paul W.S. Anderson
    scenariusz: Paul W.S. Anderson
    gatunek: Horror Akcja
    produkcja: Francja Kanada Niemcy USA
    premiera: 14 września 2012 (Polska) 3 września 2012 (świat)

    U boku ruchu oporu Alice walczy z korporacją Umbrella i nieumarłymi.

    General
    Spoiler:
    Format : Matroska
    File size : 20.2 GiB
    Duration : 1h 35mn
    Overall bit rate : 30.3 Mbps
    Video #1
    ID : 1
    Format : AVC
    Format/Info : Advanced Video Codec
    Format profile : Main@L4.1
    Codec ID : V_MPEG4/ISO/AVC
    Duration : 1h 35mn
    Width : 1 920 pixels
    Height : 800 pixels
    Display aspect ratio : 2.40:1
    Frame rate : 23.976 fps
    Resolution : 24 bits
    Audio #2
    ID : 2
    Format : DTS
    Format/Info : Digital Theater Systems
    Format profile : MA
    Codec ID : A_DTS
    Duration : 1h 35mn
    Bit rate mode : Variable
    Channel(s) : 6 channels
    Channel positions : Front: L C R, Surround: L R, LFE
    Sampling rate : 48.0 KHz
    Resolution : 24 bits
    Title : English DTS-HD MA 5.1 / 3361 Kbps / 48 kHz / 24-bit
    Language : English
    Audio #3
    ID : 3
    Format : DTS
    Format/Info : Digital Theater Systems
    Codec ID : A_DTS
    Duration : 1h 35mn
    Bit rate mode : Constant
    Bit rate : 1 510 Kbps
    Channel(s) : 6 channels
    Channel positions : Front: L C R, Surround: L R, LFE
    Sampling rate : 48.0 KHz
    Resolution : 24 bits
    Stream size : 1.01 GiB (5%)
    Title : English DTS 5.1 / 1510 Kbps / 24-bit / 48 kHz
    Language : English
    Audio #4
    ID : 4
    Format : AC-3
    Format/Info : Audio Coding 3
    Codec ID : A_AC3
    Duration : 1h 35mn
    Bit rate mode : Constant
    Bit rate : 448 Kbps
    Channel(s) : 6 channels
    Channel positions : Front: L C R, Surround: L R, LFE
    Sampling rate : 48.0 KHz
    Stream size : 306 MiB (1%)
    Title : Polish AC3 448 Kbps
    Language : Polish
    Text #5
    ID : 5
    Format : SSA
    Codec ID : S_TEXT/SSA
    Codec ID/Info : Sub Station Alpha
    Title : Polish SSA
    Language : Polish
    Text #6
    ID : 6
    Format : UTF-8
    Codec ID : S_TEXT/UTF8
    Codec ID/Info : UTF-8 Plain Text
    Title : Polish SRT
    Language : Polish







    Source A/V : BD

    Kompresja RAR + 10% Danych Naprawczych
    Brak Hasła
    Plki po 1,2Gb
    Pliki można pobierać na przemian

    Rapidu - FileShark :



    Linki / Download / Mirror / Pobierz:
    Linki widoczne tylko dla zarejestrowanych użytkowników.
    Ostatnio edytowane przez Demonxx ; 13-10-2015 o 12:08

  4. #4
    Użytkownik Array
    Dołączył
    Jun 2015
    Posty
    740
    Podziękował/a
    0
    Otrzymał/a podziękowań 11
    Siła reputacji
    76

    Domyślnie

    Resident Evil ( 2002 - 2012 ) Kolekcja PL.3D.Anaglif.1080p.BluRay.x264.AC3-DX / Lektor PL

    Spoiler:


    Gatunek: Horror, Akcja



    Film w wersji 3D. Do oglądania filmu potrzebujemy
    okularów anaglifowych: Red/Cyan

    Spoiler:





    Resident Evil (2002)
    Spoiler:

    Gatunek: Horror, Akcja
    Reżyseria: Paul W.S. Anderson
    Scenaruisz: Paul W.S. Anderson
    Produkcja: Francja, Niemcy, Wielka Brytania
    Czas trwania: 1h 40 min

    Thriller science-fiction oparty na serii popularnych gier komputerowych "Resident Evil". Na początku XXI wieku The Umbrella Corporation staje się największą firmą komercyjną w Stanach Zjednoczonych. W 9 na 10 domach znajdują się jej produkty. Wszędzie ma wpływy polityczne i finansowe. Oficjalnie jest wiodącym w świecie dostawcą technologii komputerowych i produktów medycznych. Natomiast ani opinia publiczna, ani pracownicy nie wiedzą, że główne dochody firma ma dzięki pracy nad technologiami... wojskowym, eksperymentami genetycznym i bronią biologiczną. W supertajnym podziemnym laboratorium firmy nazywanym The Hive trwają prace nad niezwykle niebezpiecznym wirusem. Kiedy ze zbitej próbówki wirus dostanie się do systemu wentylacyjnego, Red Queen - główny komputer, odetnie drogę ucieczki pracującym w laboratorium naukowcom. Wszyscy giną. Przynajmniej tak to na początku wygląda. Do laboratorium przybywa elitarna grupa komandosów. Mają trzy godziny, żeby izolować wirus i uratować przed nim świat. Przeszkadzać im będzie nie tylko Red Queen, ale naukowcy, których wirus zmutował w coś na kształt zombie oraz przerażający, mutujący wciąż potwór Licker.



    General
    Spoiler:
    Format : Matroska
    File size : 7.92 GiB
    Duration : 1h 40mn
    Overall bit rate : 11.3 Mbps
    Video #1
    ID : 1
    Format : AVC
    Format/Info : Advanced Video Codec
    Format profile : Main@L4.0
    Codec ID : V_MPEG4/ISO/AVC
    Duration : 1h 40mn
    Bit rate : 10.6 Mbps
    Nominal bit rate : 11.0 Mbps
    Width : 1 920 pixels
    Height : 1 040 pixels
    Display aspect ratio : 16:9
    Frame rate : 23.976 fps
    Audio #2
    ID : 2
    Format : AC-3
    Format/Info : Audio Coding 3
    Codec ID : A_AC3
    Duration : 1h 40mn
    Bit rate mode : Constant
    Bit rate : 448 Kbps
    Channel(s) : 6 channels
    Channel positions : Front: L C R, Surround: L R, LFE
    Sampling rate : 48.0 KHz
    Stream size : 321 MiB (4%)
    Language : Polish






    Source A/V : BD

    Kompresja RAR + 10% Danych Naprawczych
    Brak Hasła
    Plki po 1,6Gb
    Pliki można pobierać na przemian

    Rapidu - FileShark :



    Linki / Download / Mirror / Pobierz:
    Linki widoczne tylko dla zarejestrowanych użytkowników.

    Resident Evil 2 Apokalipsa / Resident Evil Apocalypse (2004)
    Spoiler:

    Gatunek: Horror, Akcja
    Reżyseria: Aleksander Witt
    Scenaruisz: Paul W.S. Anderson
    Produkcja: Francja, Kanada, Niemcy, Wielka Brytania
    Czas trwania: 1h 33 min

    Po sukcesie, jaki odniósł "Resident Evil", przyszła kolej na drugi odcinek przygód agentki walczącej z zombie. W centrum Raccoon City niewielka grupa ludzi walczy o przetrwanie. Wśród nich znajduje się Alice (Milla Jovovich). Przedzierając się przez hordy żywych trupów bohaterowie usiłują uciec z miasta. Ich jedyną nadzieją jest dr. Charles Ashford. Zgadza się on im pomóc, pod warunkiem, że odnajdą jego córkę. A w samym mieście pojawia się genetycznie zmodyfikowana istota, o kryptonimie "Nemezis"...



    General
    Spoiler:
    Format : Matroska
    File size : 7.92 GiB
    Duration : 1h 33mn
    Overall bit rate : 12.1 Mbps
    Video #1
    ID : 1
    Format : AVC
    Format/Info : Advanced Video Codec
    Format profile : Main@L4.0
    Codec ID : V_MPEG4/ISO/AVC
    Duration : 1h 33mn
    Bit rate : 11.4 Mbps
    Nominal bit rate : 11.8 Mbps
    Width : 1 920 pixels
    Height : 800 pixels
    Display aspect ratio : 2.40:1
    Frame rate : 23.976 fps
    Audio #2
    ID : 2
    Format : AC-3
    Format/Info : Audio Coding 3
    Codec ID : A_AC3
    Duration : 1h 33mn
    Bit rate mode : Constant
    Bit rate : 448 Kbps
    Channel(s) : 6 channels
    Channel positions : Front: L C R, Surround: L R, LFE
    Sampling rate : 48.0 KHz
    Stream size : 301 MiB (4%)
    Language : Polish






    Source A/V : BD

    Kompresja RAR + 10% Danych Naprawczych
    Brak Hasła
    Plki po 1,6Gb
    Pliki można pobierać na przemian

    Rapidu - FileShark :



    Linki / Download / Mirror / Pobierz:
    Linki widoczne tylko dla zarejestrowanych użytkowników.

    Resident Evil Zagłada / Resident Evil Extinction (2007)
    Spoiler:

    Gatunek: Horror, Akcja
    Reżyseria: Russell Mulcahy
    Scenaruisz: Paul W.S. Anderson
    Produkcja: Australia, Francja, USA, Niemcy, Wielka Brytania
    Czas trwania: 1h 34 min

    Milla Jovovich wraca w trzeciej odsłonie Resident Evil! Ten przepełniony akcją i niesamowitymi efektami specjalnymi film rozgrywa się tym razem na pustyni w Nevadzie gdzie rozgrywa się największa w historii walka pomiędzy zombie a ludźmi! Las Vegas to rozrywka i słońce... No tak, przynajmniej jest tu jeszcze sło?ce... Miasto wygląda jak reszta pustyni, a jedynie kilka zardzewiałych znaków przypomina o czasach minionej świetności! Tłumy żądnych krwi zombie szukają świeżych ofiar. By ocalić...



    General
    Spoiler:
    Format : Matroska
    File size : 7.91 GiB
    Duration : 1h 33mn
    Overall bit rate : 12.0 Mbps
    Video #1
    ID : 1
    Format : AVC
    Format/Info : Advanced Video Codec
    Format profile : Main@L4.0
    Codec ID : V_MPEG4/ISO/AVC
    Duration : 1h 33mn
    Bit rate : 11.4 Mbps
    Nominal bit rate : 11.7 Mbps
    Width : 1 920 pixels
    Height : 800 pixels
    Display aspect ratio : 2.40:1
    Frame rate : 23.976 fps
    Audio #2
    ID : 2
    Format : AC-3
    Format/Info : Audio Coding 3
    Codec ID : A_AC3
    Duration : 1h 33mn
    Bit rate mode : Constant
    Bit rate : 448 Kbps
    Channel(s) : 6 channels
    Channel positions : Front: L C R, Surround: L R, LFE
    Sampling rate : 48.0 KHz
    Stream size : 301 MiB (4%)
    Language : Polish






    Source A/V : BD

    Kompresja RAR + 10% Danych Naprawczych
    Brak Hasła
    Plki po 1,6Gb
    Pliki można pobierać na przemian

    Rapidu - FileShark :



    Linki / Download / Mirror / Pobierz:
    Linki widoczne tylko dla zarejestrowanych użytkowników.

    Resident Evil Afterlife (2010)
    Spoiler:

    Gatunek: Horror, Akcja
    Reżyseria: Paul W.S. Anderson
    Scenaruisz: Paul W.S. Anderson
    Produkcja: Francja, USA, Niemcy, Wielka Brytania
    Czas trwania: 1h 36 min

    W świecie spustoszonym przez wirus zamieniający ofiary w żywy trupy Alice kontynuuje swoją podróż. Bohaterka odnajduje ocalałych ludzi i stara się zapewnić im bezpiecze?stwo. Gdy walka na śmierć i życie z korporacją Umbrella sięga szczytu, bohaterka otrzymuje pomoc od starego przyjaciela. Nowy przywódca, który obiecuje bezpieczną przysta?, wiedzie ocalałych do Los Angeles. Jednak miasto okazuje się być oblegane przez tysiące zombie. Alice i jej towarzysze znajdują się o krok od śmiertelnej pułapki.



    General
    Spoiler:
    Format : Matroska
    File size : 8.00 GiB
    Duration : 1h 36mn
    Overall bit rate : 11.8 Mbps
    Video #1
    ID : 1
    Format : AVC
    Format/Info : Advanced Video Codec
    Format profile : Main@L4.0
    Codec ID : V_MPEG4/ISO/AVC
    Duration : 1h 36mn
    Bit rate : 11.1 Mbps
    Nominal bit rate : 11.4 Mbps
    Width : 1 920 pixels
    Height : 800 pixels
    Display aspect ratio : 2.40:1
    Frame rate : 23.976 fps
    Audio #2
    ID : 2
    Format : AC-3
    Format/Info : Audio Coding 3
    Codec ID : A_AC3
    Duration : 1h 36mn
    Bit rate mode : Constant
    Bit rate : 448 Kbps
    Channel(s) : 6 channels
    Channel positions : Front: L C R, Surround: L R, LFE
    Sampling rate : 48.0 KHz
    Stream size : 310 MiB (4%)
    Language : Polish






    Source A/V : BD

    Kompresja RAR + 10% Danych Naprawczych
    Brak Hasła
    Plki po 1,6Gb
    Pliki można pobierać na przemian

    Rapidu - FileShark :



    Linki / Download / Mirror / Pobierz:
    Linki widoczne tylko dla zarejestrowanych użytkowników.

    Resident Evil Retrybucja / Resident Evil: Retribution (2012)
    Spoiler:

    reżyseria: Paul W.S. Anderson
    scenariusz: Paul W.S. Anderson
    gatunek: Horror Akcja
    produkcja: Francja Kanada Niemcy USA
    premiera: 14 września 2012 (Polska) 3 września 2012 (świat)

    U boku ruchu oporu Alice walczy z korporacją Umbrella i nieumarłymi.



    General
    Spoiler:
    Format : Matroska
    File size : 7.96 GiB
    Duration : 1h 35mn
    Overall bit rate : 11.9 Mbps
    Video #1
    ID : 1
    Format : AVC
    Format/Info : Advanced Video Codec
    Format profile : Main@L4.0
    Codec ID : V_MPEG4/ISO/AVC
    Duration : 1h 35mn
    Bit rate : 11.2 Mbps
    Nominal bit rate : 11.5 Mbps
    Width : 1 920 pixels
    Height : 800 pixels
    Display aspect ratio : 2.40:1
    Frame rate : 23.976 fps
    Audio #2
    ID : 2
    Format : AC-3
    Format/Info : Audio Coding 3
    Codec ID : A_AC3
    Duration : 1h 35mn
    Bit rate mode : Constant
    Bit rate : 448 Kbps
    Channel(s) : 6 channels
    Channel positions : Front: L C R, Surround: L R, LFE
    Sampling rate : 48.0 KHz
    Stream size : 306 MiB (4%)
    Language : Polish






    Source A/V : BD

    Kompresja RAR + 10% Danych Naprawczych
    Brak Hasła
    Plki po 1,6Gb
    Pliki można pobierać na przemian

    Rapidu - FileShark :



    Linki / Download / Mirror / Pobierz:
    Linki widoczne tylko dla zarejestrowanych użytkowników.
    Ostatnio edytowane przez Demonxx ; 18-02-2016 o 09:48

  5. #5
    Użytkownik Array
    Dołączył
    Jun 2015
    Posty
    740
    Podziękował/a
    0
    Otrzymał/a podziękowań 11
    Siła reputacji
    76

    Domyślnie

    Wersja m-1080

    Resident Evil (2002)
    Multi.BluRay.m1080p.x264.AC3-DX
    Lektor i Napisy PL


    General

    Spoiler:
    Format : Matroska
    File size : 2.93 GiB
    Duration : 1h 40mn
    Overall bit rate : 4 166 Kbps
    Video #1
    ID : 1
    Format : AVC
    Bit rate : 3 187 Kbps
    Width : 1 920 pixels
    Height : 1 040 pixels
    Frame rate : 23.976 fps
    Audio #2
    ID : 2
    Format : AC-3
    Bit rate : 448 Kbps
    Channel(s) : 6 channels
    Sampling rate : 48.0 KHz
    Title : Polish AC3 5.1 448 Kbps
    Language : Polish
    Audio #3
    ID : 3
    Format : AC-3
    Bit rate : 448 Kbps
    Channel(s) : 6 channels
    Sampling rate : 48.0 KHz
    Title : English AC3 5.1 448 Kbps
    Language : English
    Text #4
    ID : 4
    Format : SSA
    Title : Polish SSA
    Language : Polish
    Text #5
    ID : 5
    Format : UTF-8
    Title : Polish SRT
    Language : Polish



    Rapidu - FileShark :

    Linki / Download / Mirror / Pobierz:
    Linki widoczne tylko dla zarejestrowanych użytkowników.

    Resident Evil 2 Apokalipsa / Resident Evil Apocalypse (2004)
    Multi.BluRay.m1080p.x264.AC3-DX
    Lektor i Napisy PL


    General

    Spoiler:
    Format : Matroska
    File size : 2.91 GiB
    Duration : 1h 33mn
    Overall bit rate : 4 443 Kbps
    Video #1
    ID : 1
    Format : AVC
    Bit rate : 3 459 Kbps
    Width : 1 920 pixels
    Height : 800 pixels
    Frame rate : 23.976 fps
    Audio #2
    ID : 2
    Format : AC-3
    Bit rate : 448 Kbps
    Channel(s) : 6 channels
    Sampling rate : 48.0 KHz
    Title : olish AC3 5.1 448 Kbps
    Language : Polish
    Audio #3
    ID : 3
    Format : AC-3
    Bit rate : 448 Kbps
    Channel(s) : 6 channels
    Sampling rate : 48.0 KHz
    Title : English AC3 5.1 448 Kbps
    Language : English
    Text #4
    ID : 4
    Format : SSA
    Title : Polish SSA
    Language : Polish
    Text #5
    ID : 5
    Format : UTF-8
    Title : Polish SRT
    Language : Polish



    Rapidu - FileShark :

    Linki / Download / Mirror / Pobierz:
    Linki widoczne tylko dla zarejestrowanych użytkowników.

    Resident Evil Zagłada / Resident Evil Extinction (2007)
    Multi.BluRay.m1080p.x264.AC3-DX
    Lektor i Napisy PL


    General

    Spoiler:
    Format : Matroska
    File size : 2.89 GiB
    Duration : 1h 34mn
    Overall bit rate : 4 403 Kbps
    Video #1
    ID : 1
    Format : AVC
    Bit rate : 3 419 Kbps
    Width : 1 920 pixels
    Height : 800 pixels
    Frame rate : 23.976 fps
    Audio #2
    ID : 2
    Format : AC-3
    Bit rate : 448 Kbps
    Channel(s) : 6 channels
    Sampling rate : 48.0 KHz
    Title : Polish AC3 5.1 448 Kbps
    Language : Polish
    Audio #3
    ID : 3
    Format : AC-3
    Bit rate : 448 Kbps
    Channel(s) : 6 channels
    Sampling rate : 48.0 KHz
    Title : English AC3 5.1 448 Kbps
    Language : English
    Text #4
    ID : 4
    Format : SSA
    Title : Polish SSA
    Language : Polish
    Text #5
    ID : 5
    Format : UTF-8
    Title : Polish SRT
    Language : Polish



    Rapidu - FileShark :

    Linki / Download / Mirror / Pobierz:
    Linki widoczne tylko dla zarejestrowanych użytkowników.

    Resident Evil Afterlife (2010)
    Multi.BluRay.m1080p.x264.AC3-DX
    Lektor i Napisy PL


    General

    Spoiler:
    Format : Matroska
    File size : 2.96 GiB
    Duration : 1h 36mn
    Overall bit rate : 4 381 Kbps
    Video #1
    ID : 1
    Format : AVC
    Bit rate : 3 397 Kbps
    Width : 1 920 pixels
    Height : 798 pixels
    Frame rate : 23.976 fps
    Audio #2
    ID : 2
    Format : AC-3
    Bit rate : 448 Kbps
    Channel(s) : 6 channels
    Sampling rate : 48.0 KHz
    Title : Polish AC3 5.1 448 Kbps
    Language : Polish
    Audio #3
    ID : 3
    Format : AC-3
    Bit rate : 448 Kbps
    Channel(s) : 6 channels
    Sampling rate : 48.0 KHz
    Title : English AC3 5.1 448 Kbps
    Language : English
    Text #4
    ID : 4
    Format : SSA
    Title : Polish SSA
    Language : Polish
    Text #5
    ID : 5
    Format : UTF-8
    Title : Polish SRT
    Language : Polish



    Rapidu - FileShark :

    Linki / Download / Mirror / Pobierz:
    Linki widoczne tylko dla zarejestrowanych użytkowników.

    Resident Evil Retrybucja / Resident Evil: Retribution (2012)
    Multi.BluRay.m1080p.x264.AC3-DX
    Lektor i Napisy PL


    General

    Spoiler:
    Format : Matroska
    File size : 2.84 GiB
    Duration : 1h 35mn
    Overall bit rate : 4 250 Kbps
    Video #1
    ID : 1
    Format : AVC
    Bit rate : 3 270 Kbps
    Width : 1 920 pixels
    Height : 800 pixels
    Frame rate : 23.976 fps
    Audio #2
    ID : 2
    Format : AC-3
    Bit rate : 448 Kbps
    Channel(s) : 6 channels
    Sampling rate : 48.0 KHz
    Title : Polish AC3 448 Kbps
    Language : Polish
    Audio #3
    ID : 3
    Format : AC-3
    Bit rate : 448 Kbps
    Channel(s) : 6 channels
    Sampling rate : 48.0 KHz
    Title : English AC3 5.1 448 Kbps
    Text #4
    ID : 4
    Format : SSA
    Title : Polish SSA
    Language : Polish
    Text #5
    ID : 5
    Format : UTF-8
    Title : Polish SRT
    Language : Polish



    Rapidu - FileShark :

    Linki / Download / Mirror / Pobierz:
    Linki widoczne tylko dla zarejestrowanych użytkowników.
    Ostatnio edytowane przez Demonxx ; 15-10-2015 o 06:19

  6. #6
    Użytkownik Array
    Dołączył
    Jun 2015
    Posty
    740
    Podziękował/a
    0
    Otrzymał/a podziękowań 11
    Siła reputacji
    76

    Domyślnie

    Resident Evil (2002) Multi.BluRay.1080p.x264.DTS-HDMA.DTS.AC3-DX Lektor i Napisy PL

    Spoiler:


    Gatunek: Horror, Akcja
    Reżyseria: Paul W.S. Anderson
    Scenaruisz: Paul W.S. Anderson
    Produkcja: Francja, Niemcy, Wielka Brytania
    Czas trwania: 1h 40 min

    Thriller science-fiction oparty na serii popularnych gier komputerowych "Resident Evil". Na początku XXI wieku The Umbrella Corporation staje się największą firmą komercyjną w Stanach Zjednoczonych. W 9 na 10 domach znajdują się jej produkty. Wszędzie ma wpływy polityczne i finansowe. Oficjalnie jest wiodącym w świecie dostawcą technologii komputerowych i produktów medycznych. Natomiast ani opinia publiczna, ani pracownicy nie wiedzą, że główne dochody firma ma dzięki pracy nad technologiami... wojskowym, eksperymentami genetycznym i bronią biologiczną. W supertajnym podziemnym laboratorium firmy nazywanym The Hive trwają prace nad niezwykle niebezpiecznym wirusem. Kiedy ze zbitej próbówki wirus dostanie się do systemu wentylacyjnego, Red Queen - główny komputer, odetnie drogę ucieczki pracującym w laboratorium naukowcom. Wszyscy giną. Przynajmniej tak to na początku wygląda. Do laboratorium przybywa elitarna grupa komandosów. Mają trzy godziny, żeby izolować wirus i uratować przed nim świat. Przeszkadzać im będzie nie tylko Red Queen, ale naukowcy, których wirus zmutował w coś na kształt zombie oraz przerażający, mutujący wciąż potwór Licker.



    General
    Spoiler:
    Format : Matroska
    File size : 20.7 GiB
    Duration : 1h 40mn
    Overall bit rate : 29.5 Mbps
    Video #1
    ID : 1
    Format : AVC
    Format/Info : Advanced Video Codec
    Format profile : Main@L4.1
    Codec ID : V_MPEG4/ISO/AVC
    Duration : 1h 40mn
    Nominal bit rate : 24.3 Mbps
    Width : 1 920 pixels
    Height : 1 040 pixels
    Display aspect ratio : 16:9
    Frame rate : 23.976 fps
    Resolution : 24 bits
    Audio #2
    ID : 2
    Format : DTS
    Format/Info : Digital Theater Systems
    Format profile : MA
    Codec ID : A_DTS
    Duration : 1h 40mn
    Bit rate mode : Variable
    Channel(s) : 6 channels
    Channel positions : Front: L C R, Surround: L R, LFE
    Sampling rate : 48.0 KHz
    Resolution : 24 bits
    Title : English DTS-HD MA 5.1 4463 Kbps
    Language : English
    Audio #3
    ID : 3
    Format : DTS
    Format/Info : Digital Theater Systems
    Codec ID : A_DTS
    Duration : 1h 40mn
    Bit rate mode : Constant
    Bit rate : 1 510 Kbps
    Channel(s) : 6 channels
    Channel positions : Front: L C R, Surround: L R, LFE
    Sampling rate : 48.0 KHz
    Title : English DTS 5.1 1510 Kbps
    Language : English
    Audio #4
    ID : 4
    Format : AC-3
    Format/Info : Audio Coding 3
    Codec ID : A_AC3
    Duration : 1h 40mn
    Bit rate mode : Constant
    Bit rate : 448 Kbps
    Channel(s) : 6 channels
    Channel positions : Front: L C R, Surround: L R, LFE
    Sampling rate : 48.0 KHz
    Title : Polish AC3 5.1 448 Kbps
    Language : Polish
    Text #5
    ID : 5
    Format : SSA
    Codec ID : S_TEXT/SSA
    Codec ID/Info : Sub Station Alpha
    Title : Polish SSA
    Language : Polish
    Text #6
    ID : 6
    Format : UTF-8
    Codec ID : S_TEXT/UTF8
    Codec ID/Info : UTF-8 Plain Text
    Title : Polish SRT
    Language : Polish







    Subtitles: PL (SSA , SRT) wmuxowane i osobno
    Source A/V : BD

    Kompresja RAR + 10% Danych Naprawczych
    Brak Hasła
    Plki po 1,6Gb
    Pliki można pobierać na przemian

    Rapidu - FileShark :



    Linki / Download / Mirror / Pobierz:
    Linki widoczne tylko dla zarejestrowanych użytkowników.


    Resident Evil 2 Apokalipsa / Resident Evil Apocalypse (2004) Multi.BluRay.1080p.x264.DTS-HDMA.DTS.AC3-DX Lektor i Napisy PL



    General
    Spoiler:
    Format : Matroska
    File size : 18.7 GiB
    Duration : 1h 33mn
    Overall bit rate : 28.5 Mbps
    Video #1
    ID : 1
    Format : AVC
    Format/Info : Advanced Video Codec
    Format profile : Main@L4.1
    Codec ID : V_MPEG4/ISO/AVC
    Duration : 1h 33mn
    Bit rate : 26.0 Mbps
    Width : 1 920 pixels
    Height : 800 pixels
    Display aspect ratio : 2.40:1
    Frame rate : 23.976 fps
    Resolution : 24 bits
    Audio #2
    ID : 2
    Format : DTS
    Format/Info : Digital Theater Systems
    Codec ID : A_DTS
    Duration : 1h 33mn
    Bit rate mode : Constant
    Bit rate : 1 510 Kbps
    Channel(s) : 6 channels
    Channel positions : Front: L C R, Surround: L R, LFE
    Sampling rate : 48.0 KHz
    Resolution : 24 bits
    Stream size : 1 013 MiB (5%)
    Title : English DTS 5.1 / 1536 kbps
    Language : English
    Audio #3
    ID : 3
    Format : AC-3
    Format/Info : Audio Coding 3
    Codec ID : A_AC3
    Duration : 1h 33mn
    Bit rate mode : Constant
    Bit rate : 448 Kbps
    Channel(s) : 6 channels
    Channel positions : Front: L C R, Surround: L R, LFE
    Sampling rate : 48.0 KHz
    Stream size : 301 MiB (2%)
    Title : Polish AC3 5.1 448 Kbps
    Language : Polish
    Text #4
    ID : 4
    Format : SSA
    Codec ID : S_TEXT/SSA
    Codec ID/Info : Sub Station Alpha
    Title : Polish SSA
    Language : Polish
    Text #5
    ID : 5
    Format : UTF-8
    Codec ID : S_TEXT/UTF8
    Codec ID/Info : UTF-8 Plain Text
    Title : Polish SRT
    Language : Polish






    Subtitles: PL (SSA , SRT) wmuxowane i osobno
    Source A/V : BD

    Kompresja RAR + 10% Danych Naprawczych
    Brak Hasła
    Plki po 1,6Gb
    Pliki można pobierać na przemian

    Rapidu - FileShark :



    Linki / Download / Mirror / Pobierz:
    Linki widoczne tylko dla zarejestrowanych użytkowników.


    Resident Evil Zagłada / Resident Evil Extinction (2007) Multi.BluRay.1080p.x264.DTS-HDMA.DTS.AC3-DX Lektor i Napisy PL


    General
    Spoiler:
    Format : Matroska
    File size : 19.9 GiB
    Duration : 1h 34mn
    Overall bit rate : 30.2 Mbps
    Video #1
    ID : 1
    Format : AVC
    Format/Info : Advanced Video Codec
    Format profile : Main@L4.1
    Codec ID : V_MPEG4/ISO/AVC
    Duration : 1h 34mn
    Width : 1 920 pixels
    Height : 800 pixels
    Display aspect ratio : 2.40:1
    Frame rate : 23.976 fps
    Resolution : 24 bits
    Audio #2
    ID : 2
    Format : DTS
    Format/Info : Digital Theater Systems
    Format profile : MA
    Codec ID : A_DTS
    Duration : 1h 34mn
    Bit rate mode : Variable
    Channel(s) : 6 channels
    Channel positions : Front: L C R, Surround: L R, LFE
    Sampling rate : 48.0 KHz
    Resolution : 24 bits
    Title : English DTS-HD MA 5.1 / 3117.00 Kbps / 48 kHz / 24-bit
    Language : English
    Audio #3
    ID : 3
    Format : DTS
    Format/Info : Digital Theater Systems
    Codec ID : A_DTS
    Duration : 1h 34mn
    Bit rate mode : Constant
    Bit rate : 1 510 Kbps
    Channel(s) : 6 channels
    Channel positions : Front: L C R, Surround: L R, LFE
    Sampling rate : 48.0 KHz
    Resolution : 24 bits
    Stream size : 1 016 MiB (5%)
    Title : English DTS 5.1 / 1510Kbps/ 48 kHz / 24-bit
    Language : English
    Audio #4
    ID : 4
    Format : AC-3
    Format/Info : Audio Coding 3
    Codec ID : A_AC3
    Duration : 1h 34mn
    Bit rate mode : Constant
    Bit rate : 448 Kbps
    Channel(s) : 6 channels
    Channel positions : Front: L C R, Surround: L R, LFE
    Sampling rate : 48.0 KHz
    Stream size : 302 MiB (1%)
    Title : Polish AC3 5.1 448 Kbps
    Language : Polish
    Text #5
    ID : 5
    Format : SSA
    Codec ID : S_TEXT/SSA
    Codec ID/Info : Sub Station Alpha
    Title : Polish SSA
    Language : Polish
    Text #6
    ID : 6
    Format : UTF-8
    Codec ID : S_TEXT/UTF8
    Codec ID/Info : UTF-8 Plain Text
    Title : Polish SRT
    Language : Polish






    Subtitles: PL (SSA , SRT) wmuxowane i osobno
    Source A/V : BD

    Kompresja RAR + 10% Danych Naprawczych
    Brak Hasła
    Plki po 1,6Gb
    Pliki można pobierać na przemian

    Rapidu - FileShark :



    Linki / Download / Mirror / Pobierz:
    Linki widoczne tylko dla zarejestrowanych użytkowników.


    Resident Evil Afterlife (2010) Multi.BluRay.1080p.x264.DTS-HDMA.DTS.AC3-DX Lektor i Napisy PL


    General
    Spoiler:
    Format : Matroska
    File size : 20.8 GiB
    Duration : 1h 36mn
    Overall bit rate : 30.7 Mbps
    Video #1
    ID : 1
    Format : AVC
    Format/Info : Advanced Video Codec
    Format profile : Main@L4.1
    Codec ID : V_MPEG4/ISO/AVC
    Duration : 1h 36mn
    Width : 1 920 pixels
    Height : 800 pixels
    Display aspect ratio : 2.40:1
    Frame rate : 23.976 fps
    Resolution : 24 bits
    Audio #2
    ID : 2
    Format : DTS
    Format/Info : Digital Theater Systems
    Format profile : MA
    Codec ID : A_DTS
    Duration : 1h 36mn
    Bit rate mode : Variable
    Channel(s) : 6 channels
    Channel positions : Front: L C R, Surround: L R, LFE
    Sampling rate : 48.0 KHz
    Resolution : 16 bits
    Title : English: DTS-HD MA 5.1 / 2410.00 Kbps / 48 kHz/16-bit
    Language : English
    Audio #3
    ID : 3
    Format : DTS
    Format/Info : Digital Theater Systems
    Codec ID : A_DTS
    Duration : 1h 36mn
    Bit rate mode : Constant
    Bit rate : 1 510 Kbps
    Channel(s) : 6 channels
    Channel positions : Front: L C R, Surround: L R, LFE
    Sampling rate : 48.0 KHz
    Resolution : 16 bits
    Stream size : 1.02 GiB (5%)
    Title : English DTS 5.1 1510 Kbps
    Language : English
    Audio #4
    ID : 4
    Format : AC-3
    Format/Info : Audio Coding 3
    Codec ID : A_AC3
    Duration : 1h 36mn
    Bit rate mode : Constant
    Bit rate : 448 Kbps
    Channel(s) : 6 channels
    Channel positions : Front: L C R, Surround: L R, LFE
    Sampling rate : 48.0 KHz
    Stream size : 310 MiB (1%)
    Title : Polish AC3 5.1 448 Kbps
    Language : Polish
    Text #5
    ID : 5
    Format : SSA
    Codec ID : S_TEXT/SSA
    Codec ID/Info : Sub Station Alpha
    Title : Polish SSA
    Language : Polish
    Text #6
    ID : 6
    Format : UTF-8
    Codec ID : S_TEXT/UTF8
    Codec ID/Info : UTF-8 Plain Text
    Title : Polish SRT
    Language : Polish






    Subtitles: PL (SSA , SRT) wmuxowane i osobno
    Source A/V : BD

    Kompresja RAR + 10% Danych Naprawczych
    Brak Hasła
    Plki po 1,6Gb
    Pliki można pobierać na przemian

    Rapidu - FileShark :



    Linki / Download / Mirror / Pobierz:
    Linki widoczne tylko dla zarejestrowanych użytkowników.


    Resident Evil Retrybucja / Resident Evil: Retribution (2012)Multi.BluRay.1080p.x264.DTS-HDMA.DTS.AC3-DX Lektor i Napisy PL



    General
    Spoiler:
    Format : Matroska
    File size : 20.2 GiB
    Duration : 1h 35mn
    Overall bit rate : 30.3 Mbps
    Video #1
    ID : 1
    Format : AVC
    Format/Info : Advanced Video Codec
    Format profile : Main@L4.1
    Codec ID : V_MPEG4/ISO/AVC
    Duration : 1h 35mn
    Width : 1 920 pixels
    Height : 800 pixels
    Display aspect ratio : 2.40:1
    Frame rate : 23.976 fps
    Resolution : 24 bits
    Audio #2
    ID : 2
    Format : DTS
    Format/Info : Digital Theater Systems
    Format profile : MA
    Codec ID : A_DTS
    Duration : 1h 35mn
    Bit rate mode : Variable
    Channel(s) : 6 channels
    Channel positions : Front: L C R, Surround: L R, LFE
    Sampling rate : 48.0 KHz
    Resolution : 24 bits
    Title : English DTS-HD MA 5.1 / 3361 Kbps / 48 kHz / 24-bit
    Language : English
    Audio #3
    ID : 3
    Format : DTS
    Format/Info : Digital Theater Systems
    Codec ID : A_DTS
    Duration : 1h 35mn
    Bit rate mode : Constant
    Bit rate : 1 510 Kbps
    Channel(s) : 6 channels
    Channel positions : Front: L C R, Surround: L R, LFE
    Sampling rate : 48.0 KHz
    Resolution : 24 bits
    Stream size : 1.01 GiB (5%)
    Title : English DTS 5.1 / 1510 Kbps / 24-bit / 48 kHz
    Language : English
    Audio #4
    ID : 4
    Format : AC-3
    Format/Info : Audio Coding 3
    Codec ID : A_AC3
    Duration : 1h 35mn
    Bit rate mode : Constant
    Bit rate : 448 Kbps
    Channel(s) : 6 channels
    Channel positions : Front: L C R, Surround: L R, LFE
    Sampling rate : 48.0 KHz
    Stream size : 306 MiB (1%)
    Title : Polish AC3 448 Kbps
    Language : Polish
    Text #5
    ID : 5
    Format : SSA
    Codec ID : S_TEXT/SSA
    Codec ID/Info : Sub Station Alpha
    Title : Polish SSA
    Language : Polish
    Text #6
    ID : 6
    Format : UTF-8
    Codec ID : S_TEXT/UTF8
    Codec ID/Info : UTF-8 Plain Text
    Title : Polish SRT
    Language : Polish






    Subtitles: PL (SSA , SRT) wmuxowane i osobno
    Source A/V : BD

    Kompresja RAR + 10% Danych Naprawczych
    Brak Hasła
    Plki po 1,6Gb
    Pliki można pobierać na przemian

    Rapidu - FileShark :



    Linki / Download / Mirror / Pobierz:
    Linki widoczne tylko dla zarejestrowanych użytkowników.
    Ostatnio edytowane przez Demonxx ; 27-01-2016 o 10:11

  7. #7
    Użytkownik Array
    Dołączył
    Jun 2015
    Posty
    740
    Podziękował/a
    0
    Otrzymał/a podziękowań 11
    Siła reputacji
    76

    Domyślnie

    Resident Evil (2002) Multi.BluRay.m1080p.x264.AC3-DX Lektor i Napisy PL

    General

    Spoiler:
    Format : Matroska
    File size : 2.93 GiB
    Duration : 1h 40mn
    Overall bit rate : 4 166 Kbps
    Video #1
    ID : 1
    Format : AVC
    Bit rate : 3 187 Kbps
    Width : 1 920 pixels
    Height : 1 040 pixels
    Frame rate : 23.976 fps
    Audio #2
    ID : 2
    Format : AC-3
    Bit rate : 448 Kbps
    Channel(s) : 6 channels
    Sampling rate : 48.0 KHz
    Title : Polish AC3 5.1 448 Kbps
    Language : Polish
    Audio #3
    ID : 3
    Format : AC-3
    Bit rate : 448 Kbps
    Channel(s) : 6 channels
    Sampling rate : 48.0 KHz
    Title : English AC3 5.1 448 Kbps
    Language : English
    Text #4
    ID : 4
    Format : SSA
    Title : Polish SSA
    Language : Polish
    Text #5
    ID : 5
    Format : UTF-8
    Title : Polish SRT
    Language : Polish



    FileShark - Rapidu :
    Linki / Download / Mirror / Pobierz:
    Linki widoczne tylko dla zarejestrowanych użytkowników.
    Resident Evil 2 Apokalipsa / Resident Evil Apocalypse (2004)
    Multi.BluRay.m1080p.x264.AC3-DX
    Lektor i Napisy PL


    General

    Spoiler:
    Format : Matroska
    File size : 2.91 GiB
    Duration : 1h 33mn
    Overall bit rate : 4 443 Kbps
    Video #1
    ID : 1
    Format : AVC
    Bit rate : 3 459 Kbps
    Width : 1 920 pixels
    Height : 800 pixels
    Frame rate : 23.976 fps
    Audio #2
    ID : 2
    Format : AC-3
    Bit rate : 448 Kbps
    Channel(s) : 6 channels
    Sampling rate : 48.0 KHz
    Title : olish AC3 5.1 448 Kbps
    Language : Polish
    Audio #3
    ID : 3
    Format : AC-3
    Bit rate : 448 Kbps
    Channel(s) : 6 channels
    Sampling rate : 48.0 KHz
    Title : English AC3 5.1 448 Kbps
    Language : English
    Text #4
    ID : 4
    Format : SSA
    Title : Polish SSA
    Language : Polish
    Text #5
    ID : 5
    Format : UTF-8
    Title : Polish SRT
    Language : Polish



    FileShark - Rapidu :
    Linki / Download / Mirror / Pobierz:
    Linki widoczne tylko dla zarejestrowanych użytkowników.
    Resident Evil Zagłada / Resident Evil Extinction (2007)
    Multi.BluRay.m1080p.x264.AC3-DX
    Lektor i Napisy PL


    General

    Spoiler:
    Format : Matroska
    File size : 2.89 GiB
    Duration : 1h 34mn
    Overall bit rate : 4 403 Kbps
    Video #1
    ID : 1
    Format : AVC
    Bit rate : 3 419 Kbps
    Width : 1 920 pixels
    Height : 800 pixels
    Frame rate : 23.976 fps
    Audio #2
    ID : 2
    Format : AC-3
    Bit rate : 448 Kbps
    Channel(s) : 6 channels
    Sampling rate : 48.0 KHz
    Title : Polish AC3 5.1 448 Kbps
    Language : Polish
    Audio #3
    ID : 3
    Format : AC-3
    Bit rate : 448 Kbps
    Channel(s) : 6 channels
    Sampling rate : 48.0 KHz
    Title : English AC3 5.1 448 Kbps
    Language : English
    Text #4
    ID : 4
    Format : SSA
    Title : Polish SSA
    Language : Polish
    Text #5
    ID : 5
    Format : UTF-8
    Title : Polish SRT
    Language : Polish



    FileShark - Rapidu:
    Linki / Download / Mirror / Pobierz:
    Linki widoczne tylko dla zarejestrowanych użytkowników.
    Resident Evil Afterlife (2010)
    Multi.BluRay.m1080p.x264.AC3-DX
    Lektor i Napisy PL


    General

    Spoiler:
    Format : Matroska
    File size : 2.96 GiB
    Duration : 1h 36mn
    Overall bit rate : 4 381 Kbps
    Video #1
    ID : 1
    Format : AVC
    Bit rate : 3 397 Kbps
    Width : 1 920 pixels
    Height : 798 pixels
    Frame rate : 23.976 fps
    Audio #2
    ID : 2
    Format : AC-3
    Bit rate : 448 Kbps
    Channel(s) : 6 channels
    Sampling rate : 48.0 KHz
    Title : Polish AC3 5.1 448 Kbps
    Language : Polish
    Audio #3
    ID : 3
    Format : AC-3
    Bit rate : 448 Kbps
    Channel(s) : 6 channels
    Sampling rate : 48.0 KHz
    Title : English AC3 5.1 448 Kbps
    Language : English
    Text #4
    ID : 4
    Format : SSA
    Title : Polish SSA
    Language : Polish
    Text #5
    ID : 5
    Format : UTF-8
    Title : Polish SRT
    Language : Polish



    FileShark - Rapidu :
    Linki / Download / Mirror / Pobierz:
    Linki widoczne tylko dla zarejestrowanych użytkowników.
    Resident Evil Retrybucja / Resident Evil: Retribution (2012)
    Multi.BluRay.m1080p.x264.AC3-DX
    Lektor i Napisy PL


    General

    Spoiler:
    Format : Matroska
    File size : 2.84 GiB
    Duration : 1h 35mn
    Overall bit rate : 4 250 Kbps
    Video #1
    ID : 1
    Format : AVC
    Bit rate : 3 270 Kbps
    Width : 1 920 pixels
    Height : 800 pixels
    Frame rate : 23.976 fps
    Audio #2
    ID : 2
    Format : AC-3
    Bit rate : 448 Kbps
    Channel(s) : 6 channels
    Sampling rate : 48.0 KHz
    Title : Polish AC3 448 Kbps
    Language : Polish
    Audio #3
    ID : 3
    Format : AC-3
    Bit rate : 448 Kbps
    Channel(s) : 6 channels
    Sampling rate : 48.0 KHz
    Title : English AC3 5.1 448 Kbps
    Text #4
    ID : 4
    Format : SSA
    Title : Polish SSA
    Language : Polish
    Text #5
    ID : 5
    Format : UTF-8
    Title : Polish SRT
    Language : Polish



    FileShark - Rapidu :
    Linki / Download / Mirror / Pobierz:
    Linki widoczne tylko dla zarejestrowanych użytkowników.
    Ostatnio edytowane przez Demonxx ; 28-01-2016 o 00:15

  8. #8
    Użytkownik Array
    Dołączył
    Jun 2015
    Posty
    740
    Podziękował/a
    0
    Otrzymał/a podziękowań 11
    Siła reputacji
    76

    Domyślnie

    Resident Evil 3D (2002) 1080p.3D.BluRay.Half.Over-Under.x264.DTS-HDMA.DTS.AC3-DX Lektor i Napisy PL

    General
    Spoiler:
    Format : Matroska
    File size : 11.8 GiB
    Duration : 1h 40mn
    Overall bit rate : 16.8 Mbps
    Video #1
    Format : AVC
    Format profile : Main@L4.1
    Format settings, ReFrames : 4 frames
    Width : 1 920 pixels
    Height : 1 080 pixels
    Frame rate : 23.976 fps
    Audio #2
    Format : DTS
    Format profile : MA
    Bit rate mode : Variable
    Channel(s) : 6 channels
    Sampling rate : 48.0 KHz
    Title : English DTS-HD MA 5.1 / 4463 Kbps / 48 kHz / 24-bit
    Audio #3
    Format : DTS
    Bit rate : 1 510 Kbps
    Channel(s) : 6 channels
    Sampling rate : 48.0 KHz
    Title : English DTS 5.1 / 1510 Kbps / 48 kHz / 24-bit
    Audio #4
    Format : AC-3
    Bit rate : 448 Kbps
    Channel(s) : 6 channels
    Sampling rate : 48.0 KHz
    Title : Polish AC3 5.1 448 Kbps
    Language : Polish
    Text #5
    Format : SSA
    Codec ID : S_TEXT/SSA
    Codec ID/Info : Sub Station Alpha
    Title : Polish SSA
    Language : Polish
    Text #6
    Format : UTF-8
    Codec ID : S_TEXT/UTF8
    Codec ID/Info : UTF-8 Plain Text
    Title : Polish SRT
    Language : Polish





    Subtitles: PL (SSA , SRT) wmuxowane
    Source A/V : BD
    Kompresja RAR + 10% Danych Naprawczych
    Brak Hasła
    Plki po 1,6Gb

    FileShark :



    Linki / Download / Mirror / Pobierz:
    Linki widoczne tylko dla zarejestrowanych użytkowników.


    Resident Evil 2 Apokalipsa 3D / Resident Evil Apocalypse 3D (2004) 1080p.3D.BluRay.Half.Over-Under.x264.DTS.AC3-DX Lektor i Napisy PL

    General
    Spoiler:
    Format : Matroska
    File size : 8.63 GiB
    Duration : 1h 33mn
    Overall bit rate : 13.2 Mbps
    Video #1
    Format : AVC
    Format profile : Main@L4.1
    Format settings, ReFrames : 4 frames
    Width : 1 920 pixels
    Height : 1 080 pixels
    Frame rate : 23.976 fps
    Audio #2
    Format : DTS
    Bit rate : 1 510 Kbps
    Channel(s) : 6 channels
    Sampling rate : 48.0 KHz
    Title : English DTS 5.1 / 1536 kbps
    Audio #3
    Format : AC-3
    Bit rate : 448 Kbps
    Channel(s) : 6 channels
    Sampling rate : 48.0 KHz
    Language : Polish
    Text #4
    Format : SSA
    Codec ID : S_TEXT/SSA
    Codec ID/Info : Sub Station Alpha
    Title : Polish SSA
    Language : Polish
    Text #5
    Format : UTF-8
    Codec ID : S_TEXT/UTF8
    Codec ID/Info : UTF-8 Plain Text
    Title : Polish SRT
    Language : Polish





    Subtitles: PL (SSA , SRT) wmuxowane
    Source A/V : BD
    Kompresja RAR + 10% Danych Naprawczych
    Brak Hasła
    Plki po 1,6Gb

    FileShark :



    Linki / Download / Mirror / Pobierz:
    Linki widoczne tylko dla zarejestrowanych użytkowników.


    Resident Evil Zagłada 3D / Resident Evil Extinction 3D (2007) 1080p.3D.BluRay.Half.Over-Under.x264.DTS-HDMA.DTS.AC3-DX Lektor i Napisy PL


    General
    Spoiler:
    Format : Matroska
    File size : 10.6 GiB
    Duration : 1h 34mn
    Overall bit rate : 16.1 Mbps
    Video #1
    Format : AVC
    Format profile : Main@L4.1
    Format settings, ReFrames : 4 frames
    Width : 1 920 pixels
    Height : 1 080 pixels
    Frame rate : 23.976 fps
    Audio #2
    Format : DTS
    Format profile : MA
    Bit rate mode : Variable
    Channel(s) : 6 channels
    Sampling rate : 48.0 KHz
    Title : English DTS-HD MA 5.1 / 3117.00 Kbps / 48 kHz / 24-bit,
    Audio #3
    Format : DTS
    Bit rate : 1 510 Kbps
    Channel(s) : 6 channels
    Sampling rate : 48.0 KHz
    Title : English DTS 5.1 / 1510Kbps/ 48 kHz / 24-bit,
    Audio #4
    Format : AC-3
    Bit rate : 448 Kbps
    Channel(s) : 6 channels
    Sampling rate : 48.0 KHz
    Title : Polish AC3 5.1 448 Kbps
    Language : Polish
    Text #5
    Format : SSA
    Codec ID : S_TEXT/SSA
    Codec ID/Info : Sub Station Alpha
    Title : Polish SSA
    Language : Polish
    Text #6
    Format : UTF-8
    Codec ID : S_TEXT/UTF8
    Codec ID/Info : UTF-8 Plain Text
    Title : Polish SRT
    Language : Polish





    Subtitles: PL (SSA , SRT) wmuxowane
    Source A/V : BD

    Kompresja RAR + 10% Danych Naprawczych
    Brak Hasła
    Plki po 1,6Gb

    FileShark :



    Linki / Download / Mirror / Pobierz:
    Linki widoczne tylko dla zarejestrowanych użytkowników.


    Resident Evil Afterlife 3D (2010) 1080p.3D.BluRay.Half.Over-Under.x264.DTS-HDMA.DTS.AC3-DX Lektor i Napisy PL

    General
    Spoiler:
    Format : Matroska
    File size : 14.2 GiB
    Duration : 1h 36mn
    Overall bit rate : 20.9 Mbps
    Video #1
    Format : AVC
    Format profile : Main@L4.1
    Format settings, ReFrames : 4 frames
    Width : 1 920 pixels
    Height : 1 080 pixels
    Frame rate : 23.976 fps
    Audio #2
    Format : DTS
    Format profile : MA
    Bit rate mode : Variable
    Channel(s) : 6 channels
    Sampling rate : 48.0 KHz
    Title : English: DTS-HD MA 5.1 / 2410.00 Kbps / 48 kHz/16-bit,
    Audio #3
    Format : DTS
    Bit rate : 1 510 Kbps
    Channel(s) : 6 channels
    Sampling rate : 48.0 KHz
    Title : English DTS 5.1 1510 Kbps
    Audio #4
    Format : AC-3
    Bit rate : 448 Kbps
    Channel(s) : 6 channels
    Sampling rate : 48.0 KHz
    Title : Polish AC3 5.1 448 Kbps
    Language : Polish
    Text #5
    Format : SSA
    Codec ID : S_TEXT/SSA
    Codec ID/Info : Sub Station Alpha
    Title : Polish SSA
    Language : Polish
    Text #6
    Format : UTF-8
    Codec ID : S_TEXT/UTF8
    Codec ID/Info : UTF-8 Plain Text
    Title : Polish SRT
    Language : Polish





    Subtitles: PL (SSA , SRT) wmuxowane
    Source A/V : BD

    Kompresja RAR + 10% Danych Naprawczych
    Brak Hasła
    Plki po 1,6Gb

    FileShark :



    Linki / Download / Mirror / Pobierz:
    Linki widoczne tylko dla zarejestrowanych użytkowników.

    Resident Evil Retrybucja 3D / Resident Evil: Retribution 3D (2012) 1080p.3D.BluRay.Half.Over-Under.x264.DTS-HDMA.DTS.AC3-DX Lektor i Napisy PL

    General
    Spoiler:
    Format : Matroska
    File size : 14.7 GiB
    Duration : 1h 35mn
    Overall bit rate : 21.9 Mbps
    Video #1
    Format : AVC
    Format profile : High@L4.1
    Format settings, ReFrames : 2 frames
    Width : 1 920 pixels
    Height : 1 080 pixels
    Frame rate : 23.976 fps
    Audio #2
    Format : DTS
    Format profile : MA
    Bit rate mode : Variable
    Channel(s) : 6 channels
    Sampling rate : 48.0 KHz
    Title : English DTS-HD MA 5.1 / 3361 Kbps / 48 kHz / 24-bit
    Audio #3
    Format : DTS
    Bit rate : 1 510 Kbps
    Channel(s) : 6 channels
    Sampling rate : 48.0 KHz
    Title : English DTS 5.1 / 1510 Kbps / 24-bit / 48 kHz
    Audio #4
    Format : AC-3
    Bit rate : 448 Kbps
    Channel(s) : 6 channels
    Sampling rate : 48.0 KHz
    Title : Polish AC3 5.1 448 Kbps
    Language : Polish
    Text #5
    Format : SSA
    Codec ID : S_TEXT/SSA
    Codec ID/Info : Sub Station Alpha
    Title : Polish SSA
    Language : Polish
    Text #6
    Format : UTF-8
    Codec ID : S_TEXT/UTF8
    Codec ID/Info : UTF-8 Plain Text
    Title : Polish SRT
    Language : Polish






    Subtitles: PL (SSA , SRT) wmuxowane
    Source A/V : BD

    Kompresja RAR + 10% Danych Naprawczych
    Brak Hasła
    Plki po 1,6Gb

    FileShark :



    Linki / Download / Mirror / Pobierz:
    Linki widoczne tylko dla zarejestrowanych użytkowników.

Podobne wątki

  1. Odpowiedzi: 54
    Ostatni post / autor: 05-09-2016, 10:50
  2. Resident Evil (2002)
    Przez Grapeshot w dziale AVI & DIVX
    Odpowiedzi: 2
    Ostatni post / autor: 05-09-2016, 10:40
  3. Resident Evil: Retrybucja / Resident Evil: Retribution (2012)
    Przez *Motylek* w dziale DVD/Blu-ray - Filmy
    Odpowiedzi: 25
    Ostatni post / autor: 14-03-2016, 18:35
  4. Odpowiedzi: 9
    Ostatni post / autor: 16-08-2014, 20:53
  5. Resident Evil (2002) Full DVD PL
    Przez funek70 w dziale Kosz
    Odpowiedzi: 0
    Ostatni post / autor: 07-05-2008, 20:46

Uprawnienia umieszczania postów

  • Nie możesz zakładać nowych tematów
  • Nie możesz pisać wiadomości
  • Nie możesz dodawać załączników
  • Nie możesz edytować swoich postów
  •  
statystyka Page Rank Check