Crows Zero / Kurôzu zero Trylogia ( 2007 - 2014) 720p.Bluray.x264.DTS.AC3-DX / Napisy PL



gatunek: Akcja

Crows Zero - Kurôzu zero (2007) 720p.Bluray.x264.DTS.5.1-DX / Napisy PL
Crows Zero II - Kurôzu zero II (2009) 720p.Bluray.x264.DTS.5.1-DX / Napisy PL
Crows Explode - Kurôzu zero III (2014) 720p.Bluray.x264.AC3.5.1-DX / Napisy PL




Crows Zero - Kurôzu zero (2007)

reżyseria: Takashi Miike
scenariusz: Shogo Muto
gatunek: Akcja
produkcja:Japonia
premiera: 27 października 2007 (świat)


Nowy uczeń w szkole Suzuran postanawia walczyć o władzę z jej dotychczasowym liderem.

General
Spoiler:
Format : Matroska
File size : 4.29 GiB
Duration : 2h 10mn
Overall bit rate : 4 724 Kbps
Video #1
ID : 1
Format : AVC
Format/Info : Advanced Video Codec
Format profile : Main@L3.1
Codec ID : V_MPEG4/ISO/AVC
Duration : 2h 9mn
Bit rate : 3 121 Kbps
Nominal bit rate : 3 191 Kbps
Width : 1 276 pixels
Height : 692 pixels
Display aspect ratio : 16:9
Frame rate : 23.976 fps
Resolution : 24 bits
Audio #2
ID : 2
Format : DTS
Format/Info : Digital Theater Systems
Codec ID : A_DTS
Duration : 2h 10mn
Bit rate mode : Constant
Bit rate : 1 510 Kbps
Channel(s) : 6 channels
Channel positions : Front: L C R, Surround: L R, LFE
Sampling rate : 48.0 KHz
Resolution : 24 bits
Stream size : 1.37 GiB (32%)
Language : Japanese
Text #3
ID : 3
Format : SSA
Codec ID : S_TEXT/SSA
Codec ID/Info : Sub Station Alpha
Langue : Polish
Text #4
ID : 4
Format : UTF-8
Codec ID : S_TEXT/UTF8
Codec ID/Info : UTF-8 Plain Text
Langue : Polish









Subtitles: PL (SSA , SRT) wmuxowane i ososbno
Source A/V : 1080p.Blu Ray.x264-WiKi

Kompresja RAR + 10% Danych Naprawczych
Brak Hasła
Plki po 1,5Gb
Pliki można pobierać na przemian

RAPIDU - FileShark - LunaticFiles :


Linki / Download / Mirror / Pobierz:
Linki widoczne tylko dla zarejestrowanych użytkowników.

Crows Zero II - Kurôzu zero II (2009)


reżyseria: Takashi Miike
scenariusz: Shogo Muto
gatunek: Akcja
produkcja: Japonia
premiera: 26 lutego 2009 (świat)


Kiedy dawny uczeń Suzuran wychodzi na wolność, powraca stara wojna między Szkołą Wron a Akademią Hosen.

General
Spoiler:
Format : Matroska
File size : 4.32 GiB
Duration : 2h 13mn
Overall bit rate : 4 644 Kbps
Video #1
ID : 1
Format : AVC
Format/Info : Advanced Video Codec
Format profile : Main@L3.1
Codec ID : V_MPEG4/ISO/AVC
Duration : 2h 13mn
Bit rate : 3 042 Kbps
Nominal bit rate : 3 077 Kbps
Width : 1 280 pixels
Height : 544 pixels
Display aspect ratio : 2.35:1
Frame rate : 23.976 fps
Resolution : 24 bits
Audio #2
ID : 2
Format : DTS
Format/Info : Digital Theater Systems
Codec ID : A_DTS
Duration : 2h 13mn
Bit rate mode : Constant
Bit rate : 1 510 Kbps
Channel(s) : 6 channels
Channel positions : Front: L C R, Surround: L R, LFE
Sampling rate : 48.0 KHz
Resolution : 24 bits
Stream size : 1.41 GiB (33%)
Language : Japanese
Text #3
ID : 3
Format : SSA
Codec ID : S_TEXT/SSA
Codec ID/Info : Sub Station Alpha
Langue : Polish
Text #4
ID : 4
Format : UTF-8
Codec ID : S_TEXT/UTF8
Codec ID/Info : UTF-8 Plain Text
Langue : Polish









Subtitles: PL (SSA , SRT) wmuxowane i ososbno
Source A/V : 1080p.Blu Ray.x264-WiKi

Kompresja RAR + 10% Danych Naprawczych
Brak Hasła
Plki po 1,5Gb
Pliki można pobierać na przemian

RAPIDU - FileShark - LunaticFiles :


Linki / Download / Mirror / Pobierz:
Linki widoczne tylko dla zarejestrowanych użytkowników.


Crows Explode - Kurôzu zero III (2014)

reżyseria: Toshiaki Toyoda
gatunek: Akcja
produkcja: Japonia
premiera: 12 kwietnia 2014 (świat)



Genji Takiya wspina się na szczyt walk w Suzuran High School.
Tymczasem prawdziwa walka w pobliżu Szkoły Przemysłowej Kurosaki się dopiero rozpoczyna.

General
Spoiler:
Format : Matroska
File size : 4.25 GiB
Duration : 2h 9mn
Overall bit rate : 4 681 Kbps
Video #1
ID : 1
Format : AVC
Format/Info : Advanced Video Codec
Format profile : Main@L3.1
Codec ID : V_MPEG4/ISO/AVC
Duration : 2h 9mn
Bit rate : 3 948 Kbps
Nominal bit rate : 4 093 Kbps
Width : 1 280 pixels
Height : 528 pixels
Display aspect ratio : 2.40:1
Frame rate : 23.976 fps
Resolution : 24 bits
Audio #2
ID : 2
Format : AC-3
Format/Info : Audio Coding 3
Codec ID : A_AC3
Duration : 2h 9mn
Bit rate mode : Constant
Bit rate : 640 Kbps
Channel(s) : 6 channels
Channel positions : Front: L C R, Surround: L R, LFE
Sampling rate : 48.0 KHz
Stream size : 595 MiB (14%)
Language : Japanese
Text #3
ID : 3
Format : SSA
Codec ID : S_TEXT/SSA
Codec ID/Info : Sub Station Alpha
Langue : Polish
Text #4
ID : 4
Format : UTF-8
Codec ID : S_TEXT/UTF8
Codec ID/Info : UTF-8 Plain Text
Langue : Polish








Subtitles: PL (SSA , SRT) wmuxowane i ososbno
Source A/V : 1080p.Blu Ray.x264-WiKi

Kompresja RAR + 10% Danych Naprawczych
Brak Hasła
Plki po 1,5Gb
Pliki można pobierać na przemian

RAPIDU - FileShark - LunaticFiles :


Linki / Download / Mirror / Pobierz:
Linki widoczne tylko dla zarejestrowanych użytkowników.