Dhoom (2004 - 2013) Trylogia 720p.Bluray.x264.DTS.5.1-DX / Napisy PL



gatunek: Thriller Akcja

Dhoom (2004) 720p.Bluray.x264.DTS.5.1-DX / Napisy PL
Dhoom II (2006) 720p.Bluray.x264.DTS.5.1-DX / Napisy PL
Dhoom III (2013) 720p.Bluray.x264.DTS.5.1-DX / Napisy PL




Dhoom (2004)

reżyseria: Sanjay Gadhvi
scenariusz: Vijay Krishna Acharya
gatunek: Thriller Akcja
produkcja: Indie
premiera: 27 sierpnia 2004 (świat)


Opowieść zaczyna się w Mumbai, gdzie wyspecjalizowana grupa złodziei przemyka przez miasto, spędzając sen z oczu policji.
Są jak tornado - zjawiają się nagle jak wiatr, zmiatają wszystko z powierzchni ziemi i znikają na swoich nowoczesnych, super szybkich motorach.

General
Spoiler:
Format : Matroska
File size : 4.34 GiB
Duration : 2h 9mn
Overall bit rate : 4 813 Kbps
Video #1
ID : 1
Format : AVC
Format/Info : Advanced Video Codec
Format profile : High@L4.1
Codec ID : V_MPEG4/ISO/AVC
Duration : 2h 9mn
Bit rate : 3 207 Kbps
Nominal bit rate : 3 303 Kbps
Width : 1 280 pixels
Height : 544 pixels
Display aspect ratio : 2.35:1
Frame rate : 24.000 fps
Resolution : 24 bits
Audio #2
ID : 2
Format : DTS
Format/Info : Digital Theater Systems
Codec ID : A_DTS
Duration : 2h 9mn
Bit rate mode : Constant
Bit rate : 1 510 Kbps
Channel(s) : 6 channels
Channel positions : Front: L C R, Surround: L R, LFE
Sampling rate : 48.0 KHz
Resolution : 16 bits
Video delay : 11ms
Stream size : 1.36 GiB (31%)
Language : Hindi
Text #3
ID : 3
Format : SSA
Codec ID : S_TEXT/SSA
Codec ID/Info : Sub Station Alpha
Langue : Polish








Subtitles: PL (SSA) wmuxowane i ososbno
Source A/V : 1080p.Blu Ray.x264-DDR

Kompresja RAR + 10% Danych Naprawczych
Brak Hasła
Plki po 1,5Gb
Pliki można pobierać na przemian

RAPIDU - FileShark - LunaticFiles :


[ukryj]code]
https://rapidu.net/0283207795/D.I.DX.2004.part1.rar
https://rapidu.net/9383207783/D.I.DX.2004.part2.rar
https://rapidu.net/8483207804/D.I.DX.2004.part3.rar
https://rapidu.net/9383207607/D.I.DX.2004.part4.rar

FileShark -- -- Pobierz plik
FileShark -- -- Pobierz plik
FileShark -- -- Pobierz plik
FileShark -- -- Pobierz plik

Pobierz 2004 part1 rar
Pobierz 2004 part2 rar
Pobierz 2004 part3 rar
Pobierz 2004 part4 rar
[/code][/ukryj]


Dhoom II (2006)


reżyseria: Sanjay Gadhvi
scenariusz: Vijay Krishna Acharya
gatunek: Thriller Akcja
produkcja: Indie
premiera: 23 listopada 2006 (świat)


Policjant Jai Dixit ściga sławnego złodzieja Aryana.
Jest on znany ze swojego zamiłowania do sztuki, ponieważ jego łupem padają zawsze ...

General
Spoiler:
Format : Matroska
File size : 4.35 GiB
Duration : 2h 31mn
Overall bit rate : 4 098 Kbps
Video #1
ID : 1
Format : AVC
Format/Info : Advanced Video Codec
Format profile : Main@L3.1
Codec ID : V_MPEG4/ISO/AVC
Duration : 2h 31mn
Bit rate : 2 507 Kbps
Nominal bit rate : 2 581 Kbps
Width : 1 280 pixels
Height : 544 pixels
Display aspect ratio : 2.35:1
Frame rate : 24.000 fps
Resolution : 24 bits
Audio #2
ID : 2
Format : DTS
Format/Info : Digital Theater Systems
Codec ID : A_DTS
Duration : 2h 31mn
Bit rate mode : Constant
Bit rate : 1 510 Kbps
Channel(s) : 6 channels
Channel positions : Front: L C R, Surround: L R, LFE
Sampling rate : 48.0 KHz
Resolution : 16 bits
Video delay : 10ms
Stream size : 1.60 GiB (37%)
Text #3
ID : 3
Format : SSA
Codec ID : S_TEXT/SSA
Codec ID/Info : Sub Station Alpha
Langue : Polish







Subtitles: PL (SSA) wmuxowane i ososbno
Source A/V : 1080p.Blu Ray.x264-DDR

Kompresja RAR + 10% Danych Naprawczych
Brak Hasła
Plki po 1,5Gb
Pliki można pobierać na przemian

RAPIDU - FileShark - LunaticFiles :


Linki / Download / Mirror / Pobierz:
Linki widoczne tylko dla zarejestrowanych użytkowników.


Dhoom III (2013)

reżyseria: Vijay Krishna Acharya
scenariusz: Vijay Krishna Acharya
gatunek: Thriller Akcja
produkcja: Indie
premiera: 19 grudnia 2013 (świat)


Sahir to przeszkolony przez swojego ojca artysta cyrkowy współpracujący z wieloma gwiazdami.
Prawdziwym motywem jego pracy nie jest jednak doskonalenie akrobatycznych sztuczek,
a zemsta na właścicielach cyrku, których oskarża o zamordowanie ojca.

General
Spoiler:
Format : Matroska
File size : 4.32 GiB
Duration : 2h 51mn
Overall bit rate : 3 617 Kbps
Video #1
ID : 1
Format : AVC
Format/Info : Advanced Video Codec
Format profile : Main@L3.1
Codec ID : V_MPEG4/ISO/AVC
Duration : 2h 51mn
Bit rate : 2 035 Kbps
Nominal bit rate : 2 119 Kbps
Width : 1 280 pixels
Height : 544 pixels
Display aspect ratio : 2.35:1
Frame rate : 24.000 fps
Resolution : 24 bits
Audio #2
ID : 2
Format : DTS
Format/Info : Digital Theater Systems
Codec ID : A_DTS
Duration : 2h 51mn
Bit rate mode : Constant
Bit rate : 1 510 Kbps
Channel(s) : 6 channels
Channel positions : Front: L C R, Surround: L R, LFE
Sampling rate : 48.0 KHz
Resolution : 24 bits
Video delay : 10ms
Stream size : 1.80 GiB (42%)
Language : Hindi
Text #3
ID : 3
Format : SSA
Codec ID : S_TEXT/SSA
Codec ID/Info : Sub Station Alpha
Langue : Polish








Subtitles: PL (SSA , SRT) wmuxowane i ososbno
Source A/V : 1080p.Blu Ray.x264-DDR

Kompresja RAR + 10% Danych Naprawczych
Brak Hasła
Plki po 1,5Gb
Pliki można pobierać na przemian

RAPIDU - FileShark - LunaticFiles :


Linki / Download / Mirror / Pobierz:
Linki widoczne tylko dla zarejestrowanych użytkowników.