Battlestar Galactica The Plan (2009) 720p.Bluray.x264.DTS-DX / Napisy PL




Spoiler:
reżyseria: Edward James Olmos
scenariusz: Jane Espenson
gatunek: Akcja Sci-Fi
produkcja: USA
premiera: 27 października 2009 (świat)


Cyloni zostali stworzeni jako roboty mające służyć ludzkości.
Jednak zbuntowali się i ewoluowali, zupełnie upodobniając się do ludzi.



General
Spoiler:
Format : Matroska
File size : 4.35 GiB
Duration : 1h 51mn
Overall bit rate : 5 590 Kbps
Video #1
ID : 1
Format : AVC
Format/Info : Advanced Video Codec
Format profile : High@L3.1
Codec ID : V_MPEG4/ISO/AVC
Duration : 1h 51mn
Bit rate : 3 969 Kbps
Nominal bit rate : 4 081 Kbps
Width : 1 280 pixels
Height : 720 pixels
Display aspect ratio : 16:9
Frame rate : 23.976 fps
Resolution : 24 bits
Audio #2
ID : 2
Format : DTS
Format/Info : Digital Theater Systems
Codec ID : A_DTS
Duration : 1h 51mn
Bit rate mode : Constant
Bit rate : 1 510 Kbps
Channel(s) : 6 channels
Channel positions : Front: L C R, Surround: L R, LFE
Sampling rate : 48.0 KHz
Resolution : 24 bits
Stream size : 1.17 GiB (27%)
Language : English
Text #3
ID : 3
Format : SSA
Codec ID : S_TEXT/SSA
Codec ID/Info : Sub Station Alpha
Langue : Polish








Subtitles: PL (SSA) wmuxowane i ososbno
Source A/V : 1080p.bluray.x264-hdmi

Kompresja RAR + 10% Danych Naprawczych
Brak Hasła
Plki po 1,5Gb
Pliki można pobierać na przemian

RAPIDU - FileShark - LunaticFiles :


Linki / Download / Mirror / Pobierz:
Linki widoczne tylko dla zarejestrowanych użytkowników.


Battlestar Galactica Krew i chrom / Battlestar Galactica Blood and Chrome (2012) 720p.BluRay.x264.DTS-DX / Napisy PL


Spoiler:


reżyseria: Jonas Pate
scenariusz: David Eick Glen A.Larson Michael Taylor Bradley Thompson David Weddle
gatunek: AkcjaSci-Fi
produkcja: USA
premiera: 9 listopada 2012 (świat)


W trakcie wojny między ludźmi a Cylonami zdolny pilot
zostaje przydzielony do załogi okrętu bojowego.



General
Spoiler:
Format : Matroska
File size : 4.36 GiB
Duration : 1h 33mn
Overall bit rate : 6 678 Kbps
Video #1
ID : 1
Format : AVC
Format/Info : Advanced Video Codec
Format profile : High@L4.1
Codec ID : V_MPEG4/ISO/AVC
Duration : 1h 33mn
Bit rate : 5 036 Kbps
Nominal bit rate : 5 169 Kbps
Width : 1 280 pixels
Height : 720 pixels
Display aspect ratio : 16:9
Frame rate : 23.976 fps
Resolution : 24 bits
Audio #2
ID : 2
Format : DTS
Format/Info : Digital Theater Systems
Codec ID : A_DTS
Duration : 1h 33mn
Bit rate mode : Constant
Bit rate : 1 510 Kbps
Channel(s) : 6 channels
Channel positions : Front: L C R, Surround: L R, LFE
Sampling rate : 48.0 KHz
Resolution : 24 bits
Video delay : 11ms
Stream size : 1 010 MiB (23%)
Title : DTS
Language : English
Text #3
ID : 3
Format : SSA
Codec ID : S_TEXT/SSA
Codec ID/Info : Sub Station Alpha
Langue : Polish








Subtitles: PL (SSA) wmuxowane i ososbno
Source A/V : 1080p.BluRay.MKV.6ch.DTS-RoB

Kompresja RAR + 10% Danych Naprawczych
Brak Hasła
Plki po 1,5Gb
Pliki można pobierać na przemian

RAPIDU - FileShark - LunaticFiles :


Linki / Download / Mirror / Pobierz:
Linki widoczne tylko dla zarejestrowanych użytkowników.