The Four I - Si Da Ming Bu I (2012) 720p.Bluray.x264.AC3.5.1-DX / Napisy PL




[spoiler]reżyseria: Gordon Chan Janet Chun
scenariusz: Gordon Chan Maria Wong Frankie Tam
gatunek: Fantasy Akcja
produkcja: Chiny
premiera: 12 lipca 2012 (świat)


Czterech funkcjonariuszy prawa łączy siły w śledztwie i odkrywa spisek,
który ma na celu obalenie rządu przy pomocy armii nieumarłych.

General
Spoiler:
Format : Matroska
File size : 4.23 GiB
Duration : 1h 58mn
Overall bit rate : 5 132 Kbps
Video #1
ID : 1
Format : AVC
Format/Info : Advanced Video Codec
Format profile : Main@L3.1
Format settings, CABAC : Yes
Format settings, ReFrames : 4 frames
Muxing mode : Container profile=Unknown@3.1
Codec ID : V_MPEG4/ISO/AVC
Duration : 1h 58mn
Bit rate : 4 390 Kbps
Nominal bit rate : 4 566 Kbps
Width : 1 280 pixels
Height : 536 pixels
Display aspect ratio : 2.35:1
Frame rate : 24.000 fps
Resolution : 24 bits
Colorimetry : 4:2:0
Scan type : Progressive
Bits/(Pixel*Frame) : 0.267
Audio #2
ID : 2
Format : AC-3
Format/Info : Audio Coding 3
Codec ID : A_AC3
Duration : 1h 58mn
Bit rate mode : Constant
Bit rate : 640 Kbps
Channel(s) : 6 channels
Channel positions : Front: L C R, Surround: L R, LFE
Sampling rate : 48.0 KHz
Stream size : 541 MiB (12%)
Language : Chinese
Text #3
ID : 3
Format : SSA
Codec ID : S_TEXT/SSA
Codec ID/Info : Sub Station Alpha
Langue : Polish








Subtitles: PL (SSA) wmuxowane i ososbno
Source A/V : 1080p.BluRay.x264-HDChina

Kompresja RAR + 10% Danych Naprawczych
Brak Hasła
Plki po 1,7Gb
Pliki można pobierać na przemian

RAPIDU - FileShark - LunaticFiles :


Linki / Download / Mirror / Pobierz:
Linki widoczne tylko dla zarejestrowanych użytkowników.
The Four II - Si Da Ming Bu II (2013) 720p.Bluray.x264.AC3.5.1-DX / Napisy PL




Spoiler:
reżyseria: Gordon Chan Janet Chun
scenariusz: Gordon Chan Rui-An Wen
gatunek: Fantasy Akcja
produkcja: Chiny
premiera: 22 listopada 2013 (świat) [/b]


Czterech funkcjonariuszy prowadzi śledztwo w sprawie morderstwa na przedmieściach.
W trakcie dochodzenia odkrywają dowody w sprawie zamordowanej rodziny sprzed 15 lat.



General
Spoiler:
Format : Matroska
File size : 4.24 GiB
Duration : 1h 57mn
Overall bit rate : 5 183 Kbps
Video #1
ID : 1
Format : AVC
Format/Info : Advanced Video Codec
Format profile : Main@L3.1
Codec ID : V_MPEG4/ISO/AVC
Duration : 1h 56mn
Bit rate : 4 440 Kbps
Nominal bit rate : 4 609 Kbps
Width : 1 280 pixels
Height : 544 pixels
Display aspect ratio : 2.35:1
Frame rate : 23.976 fps
Resolution : 24 bits
Audio #2
ID : 2
Format : AC-3
Format/Info : Audio Coding 3
Codec ID : A_AC3
Duration : 1h 57mn
Bit rate mode : Constant
Bit rate : 640 Kbps
Channel(s) : 6 channels
Channel positions : Front: L C R, Surround: L R, LFE
Sampling rate : 48.0 KHz
Stream size : 536 MiB (12%)
Language : Chinese
Text #3
ID : 3
Format : SSA
Codec ID : S_TEXT/SSA
Codec ID/Info : Sub Station Alpha
Language : Polish

Text #4
ID : 4
Format : UTF-8
Codec ID : S_TEXT/UTF8
Codec ID/Info : UTF-8 Plain Text
Langue : Polish








Subtitles: PL (SSA , SRT) wmuxowane
Source A/V : 1080p.Blu Ray.x264-WiKi

Kompresja RAR + 10% Danych Naprawczych
Brak Hasła
Plki po 1,7Gb
Pliki można pobierać na przemian

RAPIDU - FileShark - LunaticFiles :


Linki / Download / Mirror / Pobierz:
Linki widoczne tylko dla zarejestrowanych użytkowników.

The Four III / Si Da Ming Fu III (2014) 720p.Bluray.x264.AC3.5.1-DX / Napisy PL




Spoiler:
reżyseria: Gordon Chan
gatunek: Fantasy Akcja
produkcja: Chiny Hongkong
premiera: 21 sierpnia 2014 (świat) [/b]


Czterech legendarnych funkcjonariuszy prawa łączy siły, chcąc powstrzymać
Mistrza Zhuge - niepokonanego mistrza kung-fu, który nie cofnie się przed niczym,


by uzyskać władzę absolutną.

General
Spoiler:
Format : Matroska
File size : 4.25 GiB
Duration : 1h 46mn
Overall bit rate : 5 704 Kbps
Video #1
ID : 1
Format : AVC
Format/Info : Advanced Video Codec
Format profile : Main@L3.1
Codec ID : V_MPEG4/ISO/AVC
Duration : 1h 46mn
Bit rate : 4 950 Kbps
Nominal bit rate : 5 125 Kbps
Width : 1 280 pixels
Height : 544 pixels
Display aspect ratio : 2.35:1
Frame rate : 23.976 fps
Resolution : 24 bits
Audio #2
ID : 2
Format : AC-3
Format/Info : Audio Coding 3
Codec ID : A_AC3
Duration : 1h 46mn
Bit rate mode : Constant
Bit rate : 640 Kbps
Channel(s) : 6 channels
Channel positions : Front: L C R, Surround: L R, LFE
Sampling rate : 48.0 KHz
Stream size : 488 MiB (11%)
Language : Chinese
Text #3
ID : 3
Format : SSA
Codec ID : S_TEXT/SSA
Codec ID/Info : Sub Station Alpha
Langue : Polish
Text #4
ID : 4
Format : UTF-8
Codec ID : S_TEXT/UTF8
Codec ID/Info : UTF-8 Plain Text
Langue : Polish







Subtitles: PL (SSA , SRT) wmuxowane i osobno
Source A/V : 1080p.Blu Ray.x264-WiKi

Kompresja RAR + 10% Danych Naprawczych
Brak Hasła
Plki po 1,7Gb
Pliki można pobierać na przemian

RAPIDU - FileShark - LunaticFiles :


Linki / Download / Mirror / Pobierz:
Linki widoczne tylko dla zarejestrowanych użytkowników.