3 А.М. Part 1 / Ti Sam Khuen Sam Part 1 (2012) 720p.BluRay.x264.AC3-CINEMANIA / Napisy PL




reżyseria: Isara Nadee Kirati Nakintanon Patchanon Thammajira
scenariusz: Sukkosin Akkarapath Monchaya Panichsarn Nattapot Potchumnean Kirati Rarikrak Bob Siriwong Wuthichai Wongnophadoon
gatunek: Horror
produkcja: Tajlandia
premiera: 22 listopada 2012 (świat)



Tajlandzki horror składający się z trzech mrożących krew w żyłach opowieści.
Dwie siostry, właścicielki sklepu z perukami zostają nawiedzone przez ducha kobiety,
której włosy zostały wykorzystane do zrobienia jednej z peruk. Pracownik domu pogrzebowego zako****e się w zwłokach kobiety,
która zginęła w wypadku razem ze swoim narzeczonym tuż przed swoim ślubem. Dwaj dyrektorzy przedsiębiorstwa,
którzy kochają robić straszne figle na swoich pracownikach muszą się zmierzyć z prawdziwym duchem.
Trzy historie przedstawione w 3 A.M., w najstraszniejszej godzinie nocy, gdy wszystkie duchy swobodnie wędrują.

General
Spoiler:
Format : Matroska
File size : 3.45 GiB
Duration : 1h 34mn
Overall bit rate : 5 224 Kbps
Video #1
ID : 1
Format : AVC
Format/Info : Advanced Video Codec
Format profile : High@L4.1
Codec ID : V_MPEG4/ISO/AVC
Duration : 1h 34mn
Bit rate : 4 480 Kbps
Width : 1 280 pixels
Height : 720 pixels
Display aspect ratio : 16:9
Frame rate : 23.976 fps
Resolution : 24 bits
Audio #2
ID : 2
Format : AC-3
Format/Info : Audio Coding 3
Codec ID : A_AC3
Duration : 1h 34mn
Bit rate mode : Constant
Bit rate : 640 Kbps
Channel(s) : 6 channels
Channel positions : Front: L C R, Surround: L R, LFE
Sampling rate : 48.0 KHz
Stream size : 433 MiB (12%)
Language : Thai
Text #3
ID : 3
Format : SSA
Codec ID : S_TEXT/SSA
Codec ID/Info : Sub Station Alpha
Langue : Polish








Subtitles: PL (SSA) wmuxowane i ososbno
Source A/V : BD

Kompresja RAR + 10% Danych Naprawczych
Brak Hasła
Plki po 1,5Gb
Pliki można pobierać na przemian

Storbit - Rapidu - FileShark - LunaticFiles - CatShare:


Linki / Download / Mirror / Pobierz:
Linki widoczne tylko dla zarejestrowanych użytkowników.

3 А.М. Part 2 / Ti Sam Khuen Sam Part 2 (2014) 720p.BluRay.x264.AC3-WiKi / Napisy PL




reżyseria: Isara Nadee Kirati Nakintanon Putipong Saisikaew
scenariusz: Sukkosin Akkarapath Monchaya Panichsarn Nattapot Potchumnean Bob Siriwong
gatunek: Horror
produkcja: Tajlandia
premiera: 16 stycznia 2014 (świat)



Tajlandzki horror składający się z trzech mrożących krew w żyłach opowieści.


General
Spoiler:
Format : Matroska
File size : 3.72 GiB
Duration : 1h 43mn
Overall bit rate : 5 132 Kbps
Video #1
ID : 1
Format : AVC
Format/Info : Advanced Video Codec
Format profile : Main@L3.1
Codec ID : V_MPEG4/ISO/AVC
Duration : 1h 43mn
Bit rate : 4 390 Kbps
Nominal bit rate : 4 540 Kbps
Width : 1 280 pixels
Height : 536 pixels
Display aspect ratio : 2.35:1
Frame rate : 23.976 fps
Resolution : 24 bits
Audio #3
ID : 3
Format : AC-3
Format/Info : Audio Coding 3
Codec ID : A_AC3
Duration : 1h 43mn
Bit rate mode : Constant
Bit rate : 640 Kbps
Channel(s) : 6 channels
Channel positions : Front: L C R, Surround: L R, LFE
Sampling rate : 48.0 KHz
Stream size : 475 MiB (12%)
Language : Thai
Text #2
ID : 2
Format : SSA
Codec ID : S_TEXT/SSA
Codec ID/Info : Sub Station Alpha
Langue : Polish







Subtitles: PL (SSA) wmuxowane i ososbno
Source A/V : BD

Kompresja RAR + 10% Danych Naprawczych
Brak Hasła
Plki po 1,5Gb
Pliki można pobierać na przemian

Storbit - Rapidu - FileShark - LunaticFiles - CatShare:


Linki / Download / Mirror / Pobierz:
Linki widoczne tylko dla zarejestrowanych użytkowników.