Pokaż wyniki od 1 do 8 z 8

Wątek: Nasz Wszechświat / Our Universe (2013)

  
  1. #1
    Uplinker Array Awatar *Motylek*
    Dołączył
    Aug 2011
    Posty
    11,139
    Podziękował/a
    0
    Otrzymał/a podziękowań 2,184
    Siła reputacji
    1140

    Domyślnie Nasz Wszechświat / Our Universe (2013)

    Nasz Wszechświat / Our Universe (2013) Lektor PL
    PL.1080p.BluRay.Half-SBS.DTS.x264-GHW




    Gwiaździste niebo było przedmiotem uwagi ludzi od czasów prehistorycznych. I nic dziwnego, bo to było w głębi wszechświata. Dziś, dzięki nowoczesnej technologii, najbardziej niewiarygodne i niesamowite tajemnice wszechświata są łatwe do zrozumienia.
    Z unikalnych zaawansowanych technologii "Nasz 3D wszechświat" daje możliwość, aby cieszyć się wspaniałymi widokami zjawisk gwiezdnych, w zaciszu domu.


    Nasz Wszechświat / Our Universe (2013) Lektor PL
    PL.1080p.BluRay.Half-SBS.DTS.x264-GHW


    Linki / Download / Mirror / Pobierz:
    Linki widoczne tylko dla zarejestrowanych użytkowników.
    Linki / Download / Mirror / Pobierz:
    Linki widoczne tylko dla zarejestrowanych użytkowników.

  2. #2
    Uplinker Array Awatar *Motylek*
    Dołączył
    Aug 2011
    Posty
    11,139
    Podziękował/a
    0
    Otrzymał/a podziękowań 2,184
    Siła reputacji
    1140

    Domyślnie

    Nasz Wszechświat / Our Universe (2013) i-HD.1080p.Over-Under.DTS-HD MA.2.0.AC3.BluRay.x264-SONDA / Lektor i Napisy PL

    Spoiler:
    Linki / Download / Mirror / Pobierz:
    Linki widoczne tylko dla zarejestrowanych użytkowników.



    Linki / Download / Mirror / Pobierz:
    Linki widoczne tylko dla zarejestrowanych użytkowników.

  3. #3
    Uplinker Array Awatar *Motylek*
    Dołączył
    Aug 2011
    Posty
    11,139
    Podziękował/a
    0
    Otrzymał/a podziękowań 2,184
    Siła reputacji
    1140

    Domyślnie

    Nasz Wszechświat / Our Universe (2013) 3D+2D.Blu-ray.1080P.MVC.DTS-HDMA.2.0-DaNieL | Lektor i Napisy PL

    Spoiler:
    Linki / Download / Mirror / Pobierz:
    Linki widoczne tylko dla zarejestrowanych użytkowników.



    Linki / Download / Mirror / Pobierz:
    Linki widoczne tylko dla zarejestrowanych użytkowników.

  4. #4
    Użytkownik Array
    Dołączył
    Nov 2013
    Posty
    4,578
    Podziękował/a
    0
    Otrzymał/a podziękowań 12
    Siła reputacji
    461

    Domyślnie

    Nasz Wszechświat / Our Universe (2013) MULTi.1080p.BluRay.Half-OU.x264.DTS.AC3-LLO / Lektor i Napisy PL


    Linki / Download / Mirror / Pobierz:
    Linki widoczne tylko dla zarejestrowanych użytkowników.
    Spoiler:
    Video
    ID : 1
    Format : AVC
    Format/Info : Advanced Video Codec
    Format profile : High@L4.1
    Format settings, CABAC : Yes
    Format settings, ReFrames : 2 frames
    Codec ID : V_MPEG4/ISO/AVC
    Duration : 51mn 33s
    Bit rate : 10.8 Mbps
    Width : 1 920 pixels
    Height : 1 080 pixels
    Display aspect ratio : 16:9
    Frame rate mode : Constant
    Frame rate : 23.976 fps
    Color space : YUV
    Chroma subsampling : 4:2:0
    Bit depth : 8 bits
    Scan type : Progressive
    Bits/(Pixel*Frame) : 0.217
    Stream size : 3.88 GiB (83%)
    Writing library : x264 core
    Language : English
    Default : Yes
    Forced : No
    Color primaries : BT.709
    Transfer characteristics : BT.709
    Matrix coefficients : BT.709

    Audio #1
    ID : 2
    Format : AC-3
    Format/Info : Audio Coding 3
    Mode extension : CM (complete main)
    Format settings, Endianness : Big
    Codec ID : A_AC3
    Duration : 51mn 33s
    Bit rate mode : Constant
    Bit rate : 448 Kbps
    Channel count : 2 channels
    Channel positions : Front: L R
    Sampling rate : 48.0 KHz
    Bit depth : 16 bits
    Compression mode : Lossy
    Stream size : 165 MiB (3%)
    Language : Polish
    Default : Yes
    Forced : No

    Audio #2
    ID : 3
    Format : DTS
    Format/Info : Digital Theater Systems
    Mode : 16
    Format settings, Endianness : Big
    Codec ID : A_DTS
    Duration : 51mn 33s
    Bit rate mode : Constant
    Bit rate : 1 509 Kbps
    Channel count : 2 channels
    Channel positions : Front: L R
    Sampling rate : 48.0 KHz
    Bit depth : 16 bits
    Compression mode : Lossy
    Stream size : 556 MiB (12%)
    Language : English
    Default : No
    Forced : No

    Text
    ID : 4
    Format : PGS
    Muxing mode : zlib
    Codec ID : S_HDMV/PGS
    Codec ID/Info : The same subtitle format used on BDs/HD-DVDs
    Language : Polish
    Default : No
    Forced : No

    Menu
    00:00:00.000 : en:00:00:00.000
    00:07:03.214 : en:00:07:03.214
    00:12:49.268 : en:00:12:49.268
    00:19:15.613 : en:00:19:15.613
    00:25:54.762 : en:00:25:54.762
    00:31:54.287 : en:00:31:54.287
    00:36:05.497 : en:00:36:05.497
    00:42:25.460 : en:00:42:25.460






    Linki / Download / Mirror / Pobierz:
    Linki widoczne tylko dla zarejestrowanych użytkowników.

  5. #5
    Użytkownik Array
    Dołączył
    Nov 2013
    Posty
    4,578
    Podziękował/a
    0
    Otrzymał/a podziękowań 12
    Siła reputacji
    461

    Domyślnie

    Nasz Wszechświat / Our Universe (2013) MULTi.1080p.BluRay.Half-OU.x264.DTS.AC3-LLO / Lektor i Napisy PL


    Linki / Download / Mirror / Pobierz:
    Linki widoczne tylko dla zarejestrowanych użytkowników.
    Spoiler:
    Video
    ID : 1
    Format : AVC
    Format/Info : Advanced Video Codec
    Format profile : High@L4.1
    Format settings, CABAC : Yes
    Format settings, ReFrames : 2 frames
    Codec ID : V_MPEG4/ISO/AVC
    Duration : 51mn 33s
    Bit rate : 10.8 Mbps
    Width : 1 920 pixels
    Height : 1 080 pixels
    Display aspect ratio : 16:9
    Frame rate mode : Constant
    Frame rate : 23.976 fps
    Color space : YUV
    Chroma subsampling : 4:2:0
    Bit depth : 8 bits
    Scan type : Progressive
    Bits/(Pixel*Frame) : 0.217
    Stream size : 3.88 GiB (83%)
    Writing library : x264 core
    Language : English
    Default : Yes
    Forced : No
    Color primaries : BT.709
    Transfer characteristics : BT.709
    Matrix coefficients : BT.709

    Audio #1
    ID : 2
    Format : AC-3
    Format/Info : Audio Coding 3
    Mode extension : CM (complete main)
    Format settings, Endianness : Big
    Codec ID : A_AC3
    Duration : 51mn 33s
    Bit rate mode : Constant
    Bit rate : 448 Kbps
    Channel count : 2 channels
    Channel positions : Front: L R
    Sampling rate : 48.0 KHz
    Bit depth : 16 bits
    Compression mode : Lossy
    Stream size : 165 MiB (3%)
    Language : Polish
    Default : Yes
    Forced : No

    Audio #2
    ID : 3
    Format : DTS
    Format/Info : Digital Theater Systems
    Mode : 16
    Format settings, Endianness : Big
    Codec ID : A_DTS
    Duration : 51mn 33s
    Bit rate mode : Constant
    Bit rate : 1 509 Kbps
    Channel count : 2 channels
    Channel positions : Front: L R
    Sampling rate : 48.0 KHz
    Bit depth : 16 bits
    Compression mode : Lossy
    Stream size : 556 MiB (12%)
    Language : English
    Default : No
    Forced : No

    Text
    ID : 4
    Format : PGS
    Muxing mode : zlib
    Codec ID : S_HDMV/PGS
    Codec ID/Info : The same subtitle format used on BDs/HD-DVDs
    Language : Polish
    Default : No
    Forced : No

    Menu
    00:00:00.000 : en:00:00:00.000
    00:07:03.214 : en:00:07:03.214
    00:12:49.268 : en:00:12:49.268
    00:19:15.613 : en:00:19:15.613
    00:25:54.762 : en:00:25:54.762
    00:31:54.287 : en:00:31:54.287
    00:36:05.497 : en:00:36:05.497
    00:42:25.460 : en:00:42:25.460






    Linki / Download / Mirror / Pobierz:
    Linki widoczne tylko dla zarejestrowanych użytkowników.

  6. #6
    Użytkownik Array
    Dołączył
    Nov 2013
    Posty
    4,578
    Podziękował/a
    0
    Otrzymał/a podziękowań 12
    Siła reputacji
    461

    Domyślnie

    Nasz Wszechświat / Our Universe (2013) MULTi.1080p.BluRay.Half-OU.x264.DTS.AC3-LLO / Lektor i Napisy PL

    Spoiler:
    Linki / Download / Mirror / Pobierz:
    Linki widoczne tylko dla zarejestrowanych użytkowników.




    Linki / Download / Mirror / Pobierz:
    Linki widoczne tylko dla zarejestrowanych użytkowników.
    Linki / Download / Mirror / Pobierz:
    Linki widoczne tylko dla zarejestrowanych użytkowników.

  7. #7
    Użytkownik Array
    Dołączył
    Aug 2015
    Posty
    27
    Podziękował/a
    0
    Otrzymał/a podziękowań 2 za 1 Post
    Siła reputacji
    0

    Domyślnie

    Nasz Wszechświat / Our Universe (2013) [1080p] [BluRay] [DTS/AC3] [x264] [Lektor PL]

    SCREENY
    Spoiler:





    Dane Techniczne:
    Linki / Download / Mirror / Pobierz:
    Linki widoczne tylko dla zarejestrowanych użytkowników.
    Linki / Download / Mirror / Pobierz:
    Linki widoczne tylko dla zarejestrowanych użytkowników.

  8. #8
    Uplinker Array Awatar *Motylek*
    Dołączył
    Aug 2011
    Posty
    11,139
    Podziękował/a
    0
    Otrzymał/a podziękowań 2,184
    Siła reputacji
    1140

    Domyślnie

    Nasz wszechświat 3D / Our Universe 3D (2013) 1080p.3D.EUR.Blu-ray.AVC.DTS-HD.MA.2.0-HDCL | Lektor i Napisy PL

    Spoiler:
    Linki / Download / Mirror / Pobierz:
    Linki widoczne tylko dla zarejestrowanych użytkowników.



    Linki / Download / Mirror / Pobierz:
    Linki widoczne tylko dla zarejestrowanych użytkowników.

Podobne wątki

  1. Jak działa wszechświat? / How the Universe Works (2010)
    Przez p4p4j w dziale TV Show/Dokumentalne
    Odpowiedzi: 1
    Ostatni post / autor: 17-05-2014, 08:29
  2. Nasz Wszechświat / Our Universe (2013)
    Przez *Motylek* w dziale DVD/Blu-ray - TVShow/Dokumentalne
    Odpowiedzi: 3
    Ostatni post / autor: 16-03-2014, 10:46

Uprawnienia umieszczania postów

  • Nie możesz zakładać nowych tematów
  • Nie możesz pisać wiadomości
  • Nie możesz dodawać załączników
  • Nie możesz edytować swoich postów
  •  
statystyka Page Rank Check