Pokaż wyniki od 1 do 2 z 2

Wątek: Transformers (2007 - 2014)

  
  1. #1
    Użytkownik Array
    Dołączył
    Jun 2015
    Posty
    740
    Podziękował/a
    0
    Otrzymał/a podziękowań 11
    Siła reputacji
    76

    Domyślnie Transformers (2007 - 2014)

    Transformers (2007) Multi.720p.BluRay.x264.DTS.5.1.AC3.5.1-DX / Lektor PL i Napisy PL
    60 FPS


    Spoiler:


    reżyseria: Michael Bay
    scenariusz: Alex Kurtzman Roberto Orci
    gatunek: Akcja Sci-Fi
    produkcja: USA
    premiera: 17 sierpnia 2007 (Polska) 12 czerwca 2007 (świat)



    Wojna pomiędzy dwoma rasami robotów Autobotami i Decepticonami przenosi się na Ziemię.
    W samym środku walki znajdzie się nastolatek Sam Witwicky.



    General
    Spoiler:
    Format : Matroska
    File size : 15.5 GiB
    Duration : 2h 23mn
    Overall bit rate : 15.4 Mbps
    Video #1
    ID : 1
    Format : AVC
    Format/Info : Advanced Video Codec
    Format profile : High@L4.1
    Codec ID : V_MPEG4/ISO/AVC
    Duration : 2h 23mn
    Bit rate : 13.2 Mbps
    Nominal bit rate : 13.5 Mbps
    Width : 1 280 pixels
    Height : 544 pixels
    Display aspect ratio : 2.35:1
    Frame rate : 59.940 fps
    Resolution : 24 bits
    Audio #2
    ID : 2
    Format : DTS
    Format/Info : Digital Theater Systems
    Codec ID : A_DTS
    Duration : 2h 23mn
    Bit rate mode : Constant
    Bit rate : 1 510 Kbps
    Channel(s) : 6 channels
    Channel positions : Front: L C R, Surround: L R, LFE
    Sampling rate : 48.0 KHz
    Resolution : 24 bits
    Video delay : 500ms
    Stream size : 1.51 GiB (10%)
    Title : English DTS 5.1 1536kbps
    Audio #3
    ID : 3
    Format : AC-3
    Format/Info : Audio Coding 3
    Codec ID : A_AC3
    Duration : 2h 23mn
    Bit rate mode : Constant
    Bit rate : 448 Kbps
    Channel(s) : 6 channels
    Channel positions : Front: L C R, Surround: L R, LFE
    Sampling rate : 48.0 KHz
    Video delay : 500ms
    Stream size : 460 MiB (3%)
    Title : Polish AC3 5.1
    Language : Polish
    Text #4
    ID : 4
    Format : SSA
    Codec ID : S_TEXT/SSA
    Codec ID/Info : Sub Station Alpha
    Title : SSA
    Language : Polish
    Text #5
    ID : 5
    Format : UTF-8
    Codec ID : S_TEXT/UTF8
    Codec ID/Info : UTF-8 Plain Text
    Title : SRT
    Language : Polish








    Subtitles: PL (SSA/SRT) wmuxowane i ososbno
    Source A/V : BD

    Kompresja RAR + 10% Danych Naprawczych
    Brak Hasła
    Plki po 1,85Gb
    Pliki można pobierać na przemian

    RAPIDU - FileShark - LunaticFiles :


    Linki / Download / Mirror / Pobierz:
    Linki widoczne tylko dla zarejestrowanych użytkowników.

    Transformers Revenge of the Fallen - Transformers Zemsta Upadłych (2009) Multi.720p.BluRay.x264.DTS.5.1.AC3.5.1-DX
    60 FPS


    Spoiler:


    reżyseria: Michael Bay
    scenariusz: Ehren Kruger Alex Kurtzman Roberto Orci
    gatunek: Akcja Sci-Fi
    produkcja: USA
    premiera: 24 czerwca 2009 (Polska) 19 czerwca 2009 (świat)



    Autoboty po raz kolejny muszą stanąć do walki z Decepticonami,
    które chcą przejąć władzę nad Ziemią.


    General
    Spoiler:
    Format : Matroska
    File size : 15.8 GiB
    Duration : 2h 29mn
    Overall bit rate : 15.1 Mbps
    Video #1
    ID : 1
    Format : AVC
    Format/Info : Advanced Video Codec
    Format profile : High@L4.1
    Codec ID : V_MPEG4/ISO/AVC
    Duration : 2h 29mn
    Bit rate : 12.8 Mbps
    Nominal bit rate : 13.5 Mbps
    Width : 1 280 pixels
    Height : 544 pixels
    Display aspect ratio : 2.35:1
    Frame rate : 59.940 fps
    Resolution : 24 bits
    Audio #2
    ID : 2
    Format : DTS
    Format/Info : Digital Theater Systems
    Codec ID : A_DTS
    Duration : 2h 29mn
    Bit rate mode : Constant
    Bit rate : 1 510 Kbps
    Channel(s) : 6 channels
    Channel positions : Front: L C R, Surround: L R, LFE
    Sampling rate : 48.0 KHz
    Resolution : 24 bits
    Video delay : 500ms
    Stream size : 1.58 GiB (10%)
    Title : Englis DTS
    Audio #3
    ID : 3
    Format : AC-3
    Format/Info : Audio Coding 3
    Codec ID : A_AC3
    Duration : 2h 29mn
    Bit rate mode : Constant
    Bit rate : 448 Kbps
    Channel(s) : 6 channels
    Channel positions : Front: L C R, Surround: L R, LFE
    Sampling rate : 48.0 KHz
    Video delay : 500ms
    Stream size : 480 MiB (3%)
    Title : Polish AC3
    Language : Polish
    Text #4
    ID : 4
    Format : SSA
    Codec ID : S_TEXT/SSA
    Codec ID/Info : Sub Station Alpha
    Title : SSA
    Language : Polish
    Text #5
    ID : 5
    Format : UTF-8
    Codec ID : S_TEXT/UTF8
    Codec ID/Info : UTF-8 Plain Text
    Title : SRT
    Language : Polish









    Subtitles: PL (SSA/SRT) wmuxowane i ososbno
    Source A/V : BD

    Kompresja RAR + 10% Danych Naprawczych
    Brak Hasła
    Plki po 1,85Gb
    Pliki można pobierać na przemian

    RAPIDU - FileShark - LunaticFiles :


    Linki / Download / Mirror / Pobierz:
    Linki widoczne tylko dla zarejestrowanych użytkowników.

    Transformers: Dark of the Moon - Transformers Ciemna Strona Księżyca (2011) Multi.1080p.BluRay.x264.DTS.5.1.AC3.5.1-DX
    60 FPS


    Spoiler:


    reżyseria: Michael Bay
    scenariusz: Ehren Kruger
    gatunek: Akcja Sci-Fi
    produkcja: USA
    premiera: 1 lipca 2011 (Polska) 23 czerwca 2011 (świat)



    Autoboty muszą obronić Ziemię przed Decepticonami,
    którzy przygotowują się do podbicia planety.


    General
    Spoiler:
    Format : Matroska
    File size : 17.4 GiB
    Duration : 2h 34mn
    Overall bit rate : 16.2 Mbps
    Video #1
    ID : 1
    Format : AVC
    Format/Info : Advanced Video Codec
    Format profile : High@L4.1
    Codec ID : V_MPEG4/ISO/AVC
    Duration : 2h 34mn
    Bit rate : 13.7 Mbps
    Width : 1 920 pixels
    Height : 800 pixels
    Display aspect ratio : 2.40:1
    Frame rate : 59.940 fps
    Resolution : 24 bits
    Audio #2
    ID : 2
    Format : DTS
    Format/Info : Digital Theater Systems
    Format profile : ES
    Codec ID : A_DTS
    Duration : 2h 34mn
    Bit rate mode : Constant
    Bit rate : 1 510 Kbps
    Channel(s) : 7 channels
    Channel positions : Front: L C R, Rear: L C R, LFE
    Sampling rate : 48.0 KHz
    Resolution : 24 bits
    Stream size : 1.63 GiB (9%)
    Title : English DTS 5.1
    Audio #3
    ID : 3
    Format : AC-3
    Format/Info : Audio Coding 3
    Codec ID : A_AC3
    Duration : 2h 34mn
    Bit rate mode : Constant
    Bit rate : 640 Kbps
    Channel(s) : 6 channels
    Channel positions : Front: L C R, Surround: L R, LFE
    Sampling rate : 48.0 KHz
    Stream size : 707 MiB (4%)
    Title : Polish AC3 5.1
    Language : Polish
    Text #4
    ID : 4
    Format : SSA
    Codec ID : S_TEXT/SSA
    Codec ID/Info : Sub Station Alpha
    Title : SSA
    Language : Polish
    Text #5
    ID : 5
    Format : UTF-8
    Codec ID : S_TEXT/UTF8
    Codec ID/Info : UTF-8 Plain Text
    Title : SRT
    Language : Polish







    Subtitles: PL (SSA/SRT) wmuxowane i ososbno
    Source A/V : BD

    Kompresja RAR + 10% Danych Naprawczych
    Brak Hasła
    Plki po 1,85Gb
    Pliki można pobierać na przemian

    RAPIDU - FileShark - LunaticFiles :


    Linki / Download / Mirror / Pobierz:
    Linki widoczne tylko dla zarejestrowanych użytkowników.

    Transformers Age of Extinction - Transformers Wiek zagłady (2014) Multi.720p.BluRay.x264.DTS.5.1.AC3.5.1-DX
    60 FPS

    Spoiler:



    reżyseria: Michael Bay
    scenariusz: Ehren Kruger
    gatunek: Akcja Sci-Fi
    produkcja: Chiny USA
    premiera: 27 czerwca 2014 (Polska) 19 czerwca 2014 (świat)



    Mechanik i jego córka dokonują odkrycia, które sprowadza do nich Autoboty i Decepticony.


    General
    Spoiler:
    Format : Matroska
    File size : 13.5 GiB
    Duration : 2h 45mn
    Overall bit rate : 11.7 Mbps
    Video #1
    ID : 1
    Format : AVC
    Format/Info : Advanced Video Codec
    Format profile : High@L4.1
    Codec ID : V_MPEG4/ISO/AVC
    Duration : 2h 44mn
    Bit rate : 9 287 Kbps
    Width : 1 280 pixels
    Height : 544 pixels
    Display aspect ratio : 2.35:1
    Frame rate : 59.940 fps
    Resolution : 24 bits
    Audio #2
    ID : 2
    Format : DTS
    Format/Info : Digital Theater Systems
    Codec ID : A_DTS
    Duration : 2h 45mn
    Bit rate mode : Constant
    Bit rate : 1 510 Kbps
    Channel(s) : 6 channels
    Channel positions : Front: L C R, Surround: L R, LFE
    Sampling rate : 48.0 KHz
    Resolution : 24 bits
    Stream size : 1.74 GiB (13%)
    Title : English DTS
    Audio #3
    ID : 3
    Format : AC-3
    Format/Info : Audio Coding 3
    Codec ID : A_AC3
    Duration : 2h 45mn
    Bit rate mode : Constant
    Bit rate : 640 Kbps
    Channel(s) : 6 channels
    Channel positions : Front: L C R, Surround: L R, LFE
    Sampling rate : 48.0 KHz
    Stream size : 756 MiB (5%)
    Language : Polish
    Text #4
    ID : 4
    Format : SSA
    Codec ID : S_TEXT/SSA
    Codec ID/Info : Sub Station Alpha
    Title : SSA
    Language : Polish
    Text #5
    ID : 5
    Format : UTF-8
    Codec ID : S_TEXT/UTF8
    Codec ID/Info : UTF-8 Plain Text
    Title : SRT
    Language : Polish









    Subtitles: PL (SSA/SRT) wmuxowane i ososbno
    Source A/V : BD

    Kompresja RAR + 10% Danych Naprawczych
    Brak Hasła
    Plki po 1,85Gb
    Pliki można pobierać na przemian

    RAPIDU - FileShark - LunaticFiles :


    Linki / Download / Mirror / Pobierz:
    Linki widoczne tylko dla zarejestrowanych użytkowników.
    Ostatnio edytowane przez Demonxx ; 14-07-2015 o 08:43

  2. #2
    Użytkownik Array
    Dołączył
    Jun 2015
    Posty
    740
    Podziękował/a
    0
    Otrzymał/a podziękowań 11
    Siła reputacji
    76

    Domyślnie

    Transformers 3D (2007) 1080p.3D.BluRay.Half.Over-Under.x264.AC3-DX / Lektor PL


    General
    Spoiler:
    Format : Matroska
    File size : 11.2 GiB
    Duration : 2h 23mn
    Overall bit rate : 11.2 Mbps
    Video #1
    Format : AVC
    Format profile : Main@L4.1
    Width : 1 920 pixels
    Height : 1 080 pixels
    Frame rate : 23.976 fps
    Audio #2
    Format : AC-3
    Bit rate : 448 Kbps
    Channel(s) : 6 channels
    Sampling rate : 48.0 KHz
    Language : Polish






    Source A/V : BD
    Kompresja RAR + 10% Danych Naprawczych
    Brak Hasła
    Plki po 1,6Gb

    FileShark :



    Linki / Download / Mirror / Pobierz:
    Linki widoczne tylko dla zarejestrowanych użytkowników.


    Transformers Zemsta Upadłych 3D / Transformers Revenge of the Fallen3D (2009) 1080p.3D.BluRay.Half.Over-Under.x264.AC3-DX / Lektor PL


    General
    Spoiler:
    Format : Matroska
    File size : 11.5 GiB
    Duration : 2h 29mn
    Overall bit rate : 11.0 Mbps
    Video #1
    Format : AVC
    Format profile : Main@L4.1
    Width : 1 920 pixels
    Height : 1 080 pixels
    Frame rate : 23.976 fps
    Audio #2
    Format : AC-3
    Bit rate : 448 Kbps
    Channel(s) : 6 channels
    Sampling rate : 48.0 KHz
    Language : Polish






    Source A/V : BD
    Kompresja RAR + 10% Danych Naprawczych
    Brak Hasła
    Plki po 1,6Gb

    FileShark :



    Linki / Download / Mirror / Pobierz:
    Linki widoczne tylko dla zarejestrowanych użytkowników.


    Transformers Ciemna Strona Księżyca 3D / Transformers: Dark of the Moon 3D (2011) 1080p.3D.BluRay.Half.Over-Under.x264.AC3-DX / Lektor PL


    General
    Spoiler:
    Format : Matroska
    File size : 11.3 GiB
    Duration : 2h 34mn
    Overall bit rate : 10.5 Mbps
    Video #1
    Format : AVC
    Format profile : Main@L4.1
    Width : 1 920 pixels
    Height : 1 080 pixels
    Frame rate : 23.976 fps
    Audio #2
    Format : AC-3
    Bit rate : 640 Kbps
    Channel(s) : 6 channels
    Sampling rate : 48.0 KHz
    Language : Polish






    Source A/V : BD
    Kompresja RAR + 10% Danych Naprawczych
    Brak Hasła
    Plki po 1,6Gb

    FileShark :



    Linki / Download / Mirror / Pobierz:
    Linki widoczne tylko dla zarejestrowanych użytkowników.


    Transformers Wiek zagłady 3D / Transformers Age of Extinction 3D (2014) IMAX Edition.1080p.3D.BluRay.Half.Over-Under.x264.AC3-DX / Lektor PL

    General
    Spoiler:
    File size : 11.2 GiB
    Duration : 2h 45mn
    Overall bit rate : 9 712 Kbps
    Video #1
    Format : AVC
    Format profile : Main@L4.0
    Width : 1 920 pixels
    Height : 1 080 pixels
    Frame rate : 23.976 fps
    Audio #2
    Format : AC-3
    Bit rate : 640 Kbps
    Channel(s) : 6 channels
    Sampling rate : 48.0 KHz
    Language : Polish





    Source A/V : BD
    Kompresja RAR + 10% Danych Naprawczych
    Brak Hasła
    Plki po 1,6Gb

    FileShark :



    Linki / Download / Mirror / Pobierz:
    Linki widoczne tylko dla zarejestrowanych użytkowników.

Podobne wątki

  1. Odpowiedzi: 49
    Ostatni post / autor: 03-11-2016, 20:34
  2. Odpowiedzi: 10
    Ostatni post / autor: 08-09-2016, 10:06
  3. Transformers: Wiek Zagłady / Transformers Age of Extinction (2014)
    Przez newland w dziale DVD/Blu-ray - Filmy
    Odpowiedzi: 23
    Ostatni post / autor: 23-12-2014, 12:44

Uprawnienia umieszczania postów

  • Nie możesz zakładać nowych tematów
  • Nie możesz pisać wiadomości
  • Nie możesz dodawać załączników
  • Nie możesz edytować swoich postów
  •  
statystyka Page Rank Check