Strona 3 z 4 PierwszyPierwszy 1234 OstatniOstatni
Pokaż wyniki od 21 do 30 z 32

Wątek: Krudowie / The Croods (2013)

  
  1. #21
    Uplinker Array Awatar plm
    Dołączył
    Feb 2013
    Posty
    1,461
    Podziękował/a
    1
    Otrzymał/a podziękowań 201
    Siła reputacji
    154

    Domyślnie

    Krudowie/ The Croods PLDUB.720p.BluRay.x264.AC3-BiDA / DUBBING PL

    Spoiler:



    ~~@ DANE TECHNICZNE @~~

    Linki / Download / Mirror / Pobierz:
    Linki widoczne tylko dla zarejestrowanych użytkowników.
    ~~@ OPIS UPLOADU @~~

    Linki / Download / Mirror / Pobierz:
    Linki widoczne tylko dla zarejestrowanych użytkowników.
    DOWNLOAD:
    Linki zamienne


    Linki / Download / Mirror / Pobierz:
    Linki widoczne tylko dla zarejestrowanych użytkowników.
    Linki / Download / Mirror / Pobierz:
    Linki widoczne tylko dla zarejestrowanych użytkowników.
    Linki / Download / Mirror / Pobierz:
    Linki widoczne tylko dla zarejestrowanych użytkowników.
    Linki / Download / Mirror / Pobierz:
    Linki widoczne tylko dla zarejestrowanych użytkowników.
    Linki / Download / Mirror / Pobierz:
    Linki widoczne tylko dla zarejestrowanych użytkowników.

  2. #22
    Użytkownik Array
    Dołączył
    Nov 2013
    Posty
    4,578
    Podziękował/a
    0
    Otrzymał/a podziękowań 12
    Siła reputacji
    461

    Domyślnie

    Krudowie / The Croods (2013) MULTi.1080p.BluRay.Half-OU.x264.DTS.AC3-LLO / Dubbing PL


    Linki / Download / Mirror / Pobierz:
    Linki widoczne tylko dla zarejestrowanych użytkowników.
    Spoiler:
    Video
    ID : 1
    Format : AVC
    Format/Info : Advanced Video Codec
    Format profile : High@L4.1
    Format settings, CABAC : Yes
    Format settings, ReFrames : 4 frames
    Codec ID : V_MPEG4/ISO/AVC
    Duration : 1h 38mn
    Bit rate : 13.2 Mbps
    Width : 1 920 pixels
    Height : 1 080 pixels
    Display aspect ratio : 16:9
    Frame rate mode : Constant
    Frame rate : 23.976 fps
    Color space : YUV
    Chroma subsampling : 4:2:0
    Bit depth : 8 bits
    Scan type : Progressive
    Bits/(Pixel*Frame) : 0.266
    Stream size : 8.89 GiB (85%)
    Writing library : x264 core 132 r2310 76a5c3a
    Encoding settings : cabac=1 / ref=4 / deblock=1:-2:-2 / analyse=0x3:0x113 / me=tesa / subme=10 / psy=1 / psy_rd=0.90:0.00 / mixed_ref=1 / me_range=28 / chroma_me=1 / trellis=2 / 8x8dct=1 / cqm=0 / deadzone=21,11 / fast_pskip=0 / chroma_qp_offset=-2 / threads=12 / lookahead_threads=2 / sliced_threads=0 / nr=0 / decimate=0 / interlaced=0 / bluray_compat=0 / constrained_intra=0 / bframes=7 / b_pyramid=2 / b_adapt=2 / b_bias=0 / direct=3 / weightb=1 / open_gop=0 / weightp=2 / keyint=250 / keyint_min=23 / scenecut=40 / intra_refresh=0 / rc_lookahead=40 / rc=2pass / mbtree=0 / bitrate=13200 / ratetol=1.0 / qcomp=0.60 / qpmin=10 / qpmax=69 / qpstep=4 / cplxblur=20.0 / qblur=0.5 / vbv_maxrate=40000 / vbv_bufsize=30000 / nal_hrd=none / frame-packing=4 / ip_ratio=1.30 / pb_ratio=1.15 / aq=1:0.70
    Language : English
    Default : Yes
    Forced : No

    Audio #1
    ID : 2
    Format : AC-3
    Format/Info : Audio Coding 3
    Mode extension : CM (complete main)
    Format settings, Endianness : Big
    Codec ID : A_AC3
    Duration : 1h 38mn
    Bit rate mode : Constant
    Bit rate : 448 Kbps
    Channel(s) : 6 channels
    Channel positions : Front: L C R, Side: L R, LFE
    Sampling rate : 48.0 KHz
    Bit depth : 16 bits
    Compression mode : Lossy
    Stream size : 316 MiB (3%)
    Language : Polish
    Default : Yes
    Forced : No

    Audio #2
    ID : 3
    Format : DTS
    Format/Info : Digital Theater Systems
    Codec ID : A_DTS
    Duration : 1h 38mn
    Bit rate mode : Constant
    Bit rate : 1 510 Kbps
    Channel(s) : 6 channels
    Channel positions : Front: L C R, Side: L R, LFE
    Sampling rate : 48.0 KHz
    Bit depth : 24 bits
    Compression mode : Lossy
    Stream size : 1.04 GiB (10%)
    Language : English
    Default : No
    Forced : No

    Text
    ID : 4
    Format : PGS
    Muxing mode : zlib
    Codec ID : S_HDMV/PGS
    Codec ID/Info : The same subtitle format used on BDs/HD-DVDs
    Language : English
    Default : No
    Forced : No




    Linki / Download / Mirror / Pobierz:
    Linki widoczne tylko dla zarejestrowanych użytkowników.
    Ostatnio edytowane przez Raval ; 05-12-2013 o 21:39

  3. #23
    Użytkownik Array
    Dołączył
    Nov 2013
    Posty
    4,578
    Podziękował/a
    0
    Otrzymał/a podziękowań 12
    Siła reputacji
    461

    Domyślnie

    Krudowie / The Croods (2013) MULTi.1080p.BluRay.Half-OU.x264.DTS.AC3-LLO / Dubbing PL

    Spoiler:
    Format : Matroska
    Format version : Version 2
    File size : 10.4 GiB
    Duration : 1h 38mn
    Overall bit rate : 15.2 Mbps
    Movie name : LLO
    Encoded date : UTC 2013-10-03 1122
    Writing application : mkvmerge v5.7.0 ('The Whirlwind') built on Jul 8 2012 20:08:51
    Writing library : libebml v1.2.3 + libmatroska v1.3.0

    Video
    ID : 1
    Format : AVC
    Format/Info : Advanced Video Codec
    Format profile : High@L4.1
    Format settings, CABAC : Yes
    Format settings, ReFrames : 4 frames
    Codec ID : V_MPEG4/ISO/AVC
    Duration : 1h 38mn
    Bit rate : 13.2 Mbps
    Width : 1 920 pixels
    Height : 1 080 pixels
    Display aspect ratio : 16:9
    Frame rate mode : Constant
    Frame rate : 23.976 fps
    Color space : YUV
    Chroma subsampling : 4:2:0
    Bit depth : 8 bits
    Scan type : Progressive
    Bits/(Pixel*Frame) : 0.266
    Stream size : 8.89 GiB (85%)
    Writing library : x264 core 132 r2310 76a5c3a
    Encoding settings : cabac=1 / ref=4 / deblock=1:-2:-2 / analyse=0x3:0x113 / me=tesa / subme=10 / psy=1 / psy_rd=0.90:0.00 / mixed_ref=1 / me_range=28 / chroma_me=1 / trellis=2 / 8x8dct=1 / cqm=0 / deadzone=21,11 / fast_pskip=0 / chroma_qp_offset=-2 / threads=12 / lookahead_threads=2 / sliced_threads=0 / nr=0 / decimate=0 / interlaced=0 / bluray_compat=0 / constrained_intra=0 / bframes=7 / b_pyramid=2 / b_adapt=2 / b_bias=0 / direct=3 / weightb=1 / open_gop=0 / weightp=2 / keyint=250 / keyint_min=23 / scenecut=40 / intra_refresh=0 / rc_lookahead=40 / rc=2pass / mbtree=0 / bitrate=13200 / ratetol=1.0 / qcomp=0.60 / qpmin=10 / qpmax=69 / qpstep=4 / cplxblur=20.0 / qblur=0.5 / vbv_maxrate=40000 / vbv_bufsize=30000 / nal_hrd=none / frame-packing=4 / ip_ratio=1.30 / pb_ratio=1.15 / aq=1:0.70
    Language : English
    Default : Yes
    Forced : No

    Audio #1
    ID : 2
    Format : AC-3
    Format/Info : Audio Coding 3
    Mode extension : CM (complete main)
    Format settings, Endianness : Big
    Codec ID : A_AC3
    Duration : 1h 38mn
    Bit rate mode : Constant
    Bit rate : 448 Kbps
    Channel(s) : 6 channels
    Channel positions : Front: L C R, Side: L R, LFE
    Sampling rate : 48.0 KHz
    Bit depth : 16 bits
    Compression mode : Lossy
    Stream size : 316 MiB (3%)
    Language : Polish
    Default : Yes
    Forced : No

    Audio #2
    ID : 3
    Format : DTS
    Format/Info : Digital Theater Systems
    Codec ID : A_DTS
    Duration : 1h 38mn
    Bit rate mode : Constant
    Bit rate : 1 510 Kbps
    Channel(s) : 6 channels
    Channel positions : Front: L C R, Side: L R, LFE
    Sampling rate : 48.0 KHz
    Bit depth : 24 bits
    Compression mode : Lossy
    Stream size : 1.04 GiB (10%)
    Language : English
    Default : No
    Forced : No

    Text
    ID : 4
    Format : PGS
    Muxing mode : zlib
    Codec ID : S_HDMV/PGS
    Codec ID/Info : The same subtitle format used on BDs/HD-DVDs
    Language : English
    Default : No
    Forced : No




    Linki / Download / Mirror / Pobierz:
    Linki widoczne tylko dla zarejestrowanych użytkowników.

  4. #24
    Użytkownik Array
    Dołączył
    Nov 2013
    Posty
    4,578
    Podziękował/a
    0
    Otrzymał/a podziękowań 12
    Siła reputacji
    461

    Domyślnie

    Krudowie / The Croods (2013) MULTi.1080p.BluRay.Half-OU.x264.DTS.AC3-LLO / Dubbing PL


    Spoiler:
    Format : Matroska
    Format version : Version 2
    File size : 10.4 GiB
    Duration : 1h 38mn
    Overall bit rate : 15.2 Mbps
    Movie name : LLO
    Encoded date : UTC 2013-10-03 1122
    Writing application : mkvmerge v5.7.0 ('The Whirlwind') built on Jul 8 2012 20:08:51
    Writing library : libebml v1.2.3 + libmatroska v1.3.0

    Video
    ID : 1
    Format : AVC
    Format/Info : Advanced Video Codec
    Format profile : High@L4.1
    Format settings, CABAC : Yes
    Format settings, ReFrames : 4 frames
    Codec ID : V_MPEG4/ISO/AVC
    Duration : 1h 38mn
    Bit rate : 13.2 Mbps
    Width : 1 920 pixels
    Height : 1 080 pixels
    Display aspect ratio : 16:9
    Frame rate mode : Constant
    Frame rate : 23.976 fps
    Color space : YUV
    Chroma subsampling : 4:2:0
    Bit depth : 8 bits
    Scan type : Progressive
    Bits/(Pixel*Frame) : 0.266
    Stream size : 8.89 GiB (85%)
    Writing library : x264 core 132 r2310 76a5c3a
    Encoding settings : cabac=1 / ref=4 / deblock=1:-2:-2 / analyse=0x3:0x113 / me=tesa / subme=10 / psy=1 / psy_rd=0.90:0.00 / mixed_ref=1 / me_range=28 / chroma_me=1 / trellis=2 / 8x8dct=1 / cqm=0 / deadzone=21,11 / fast_pskip=0 / chroma_qp_offset=-2 / threads=12 / lookahead_threads=2 / sliced_threads=0 / nr=0 / decimate=0 / interlaced=0 / bluray_compat=0 / constrained_intra=0 / bframes=7 / b_pyramid=2 / b_adapt=2 / b_bias=0 / direct=3 / weightb=1 / open_gop=0 / weightp=2 / keyint=250 / keyint_min=23 / scenecut=40 / intra_refresh=0 / rc_lookahead=40 / rc=2pass / mbtree=0 / bitrate=13200 / ratetol=1.0 / qcomp=0.60 / qpmin=10 / qpmax=69 / qpstep=4 / cplxblur=20.0 / qblur=0.5 / vbv_maxrate=40000 / vbv_bufsize=30000 / nal_hrd=none / frame-packing=4 / ip_ratio=1.30 / pb_ratio=1.15 / aq=1:0.70
    Language : English
    Default : Yes
    Forced : No

    Audio #1
    ID : 2
    Format : AC-3
    Format/Info : Audio Coding 3
    Mode extension : CM (complete main)
    Format settings, Endianness : Big
    Codec ID : A_AC3
    Duration : 1h 38mn
    Bit rate mode : Constant
    Bit rate : 448 Kbps
    Channel(s) : 6 channels
    Channel positions : Front: L C R, Side: L R, LFE
    Sampling rate : 48.0 KHz
    Bit depth : 16 bits
    Compression mode : Lossy
    Stream size : 316 MiB (3%)
    Language : Polish
    Default : Yes
    Forced : No

    Audio #2
    ID : 3
    Format : DTS
    Format/Info : Digital Theater Systems
    Codec ID : A_DTS
    Duration : 1h 38mn
    Bit rate mode : Constant
    Bit rate : 1 510 Kbps
    Channel(s) : 6 channels
    Channel positions : Front: L C R, Side: L R, LFE
    Sampling rate : 48.0 KHz
    Bit depth : 24 bits
    Compression mode : Lossy
    Stream size : 1.04 GiB (10%)
    Language : English
    Default : No
    Forced : No

    Text
    ID : 4
    Format : PGS
    Muxing mode : zlib
    Codec ID : S_HDMV/PGS
    Codec ID/Info : The same subtitle format used on BDs/HD-DVDs
    Language : English
    Default : No
    Forced : No





    Linki / Download / Mirror / Pobierz:
    Linki widoczne tylko dla zarejestrowanych użytkowników.

  5. #25
    Uplinker Array Awatar *Motylek*
    Dołączył
    Aug 2011
    Posty
    11,144
    Podziękował/a
    0
    Otrzymał/a podziękowań 2,184
    Siła reputacji
    1141

    Domyślnie

    Krudowie 3D / The Croods 3D (2013) 1080p.BluRay.Half.Over-Under.x264.DTS 5.1.AC3-SONDA | Dubbing i Napisy PL

    Spoiler:
    Linki / Download / Mirror / Pobierz:
    Linki widoczne tylko dla zarejestrowanych użytkowników.



    Linki / Download / Mirror / Pobierz:
    Linki widoczne tylko dla zarejestrowanych użytkowników.

  6. #26
    Uplinker Array Awatar *Motylek*
    Dołączył
    Aug 2011
    Posty
    11,144
    Podziękował/a
    0
    Otrzymał/a podziękowań 2,184
    Siła reputacji
    1141

    Domyślnie

    Krudowie 3D - The Croods 3D (2013) mini-HD.1080p.Over-Under.AC3.BluRay.x264-SONDA | Dubbing PL


    Spoiler:
    Linki / Download / Mirror / Pobierz:
    Linki widoczne tylko dla zarejestrowanych użytkowników.





    Linki / Download / Mirror / Pobierz:
    Linki widoczne tylko dla zarejestrowanych użytkowników.

  7. #27
    Użytkownik Array
    Dołączył
    Nov 2013
    Posty
    4,578
    Podziękował/a
    0
    Otrzymał/a podziękowań 12
    Siła reputacji
    461

    Domyślnie

    Krudowie / The Croods (2013) MULTi.1080p.BluRay.Half-OU.x264.DTS.AC3-LLO / Dubbing PL

    Linki / Download / Mirror / Pobierz:
    Linki widoczne tylko dla zarejestrowanych użytkowników.
    Spoiler:
    Video
    ID : 1
    Format : AVC
    Format/Info : Advanced Video Codec
    Format profile : High@L4.1
    Format settings, CABAC : Yes
    Format settings, ReFrames : 4 frames
    Codec ID : V_MPEG4/ISO/AVC
    Duration : 1h 38mn
    Bit rate : 13.2 Mbps
    Width : 1 920 pixels
    Height : 1 080 pixels
    Display aspect ratio : 16:9
    Frame rate mode : Constant
    Frame rate : 23.976 fps
    Color space : YUV
    Chroma subsampling : 4:2:0
    Bit depth : 8 bits
    Scan type : Progressive
    Bits/(Pixel*Frame) : 0.266
    Stream size : 8.89 GiB (85%)
    Writing library : x264 core 132 r2310 76a5c3a
    Encoding settings : cabac=1 / ref=4 / deblock=1:-2:-2 / analyse=0x3:0x113 / me=tesa / subme=10 / psy=1 / psy_rd=0.90:0.00 / mixed_ref=1 / me_range=28 / chroma_me=1 / trellis=2 / 8x8dct=1 / cqm=0 / deadzone=21,11 / fast_pskip=0 / chroma_qp_offset=-2 / threads=12 / lookahead_threads=2 / sliced_threads=0 / nr=0 / decimate=0 / interlaced=0 / bluray_compat=0 / constrained_intra=0 / bframes=7 / b_pyramid=2 / b_adapt=2 / b_bias=0 / direct=3 / weightb=1 / open_gop=0 / weightp=2 / keyint=250 / keyint_min=23 / scenecut=40 / intra_refresh=0 / rc_lookahead=40 / rc=2pass / mbtree=0 / bitrate=13200 / ratetol=1.0 / qcomp=0.60 / qpmin=10 / qpmax=69 / qpstep=4 / cplxblur=20.0 / qblur=0.5 / vbv_maxrate=40000 / vbv_bufsize=30000 / nal_hrd=none / frame-packing=4 / ip_ratio=1.30 / pb_ratio=1.15 / aq=1:0.70
    Language : English
    Default : Yes
    Forced : No

    Audio #1
    ID : 2
    Format : AC-3
    Format/Info : Audio Coding 3
    Mode extension : CM (complete main)
    Format settings, Endianness : Big
    Codec ID : A_AC3
    Duration : 1h 38mn
    Bit rate mode : Constant
    Bit rate : 448 Kbps
    Channel(s) : 6 channels
    Channel positions : Front: L C R, Side: L R, LFE
    Sampling rate : 48.0 KHz
    Bit depth : 16 bits
    Compression mode : Lossy
    Stream size : 316 MiB (3%)
    Language : Polish
    Default : Yes
    Forced : No

    Audio #2
    ID : 3
    Format : DTS
    Format/Info : Digital Theater Systems
    Codec ID : A_DTS
    Duration : 1h 38mn
    Bit rate mode : Constant
    Bit rate : 1 510 Kbps
    Channel(s) : 6 channels
    Channel positions : Front: L C R, Side: L R, LFE
    Sampling rate : 48.0 KHz
    Bit depth : 24 bits
    Compression mode : Lossy
    Stream size : 1.04 GiB (10%)
    Language : English
    Default : No
    Forced : No

    Text
    ID : 4
    Format : PGS
    Muxing mode : zlib
    Codec ID : S_HDMV/PGS
    Codec ID/Info : The same subtitle format used on BDs/HD-DVDs
    Language : English
    Default : No
    Forced : No






    Linki / Download / Mirror / Pobierz:
    Linki widoczne tylko dla zarejestrowanych użytkowników.

  8. #28
    Użytkownik Array
    Dołączył
    Nov 2013
    Posty
    4,578
    Podziękował/a
    0
    Otrzymał/a podziękowań 12
    Siła reputacji
    461

    Domyślnie

    Krudowie / The Croods (2013) MULTi.1080p.BluRay.Half-OU.x264.DTS.AC3-LLO / Dubbing PL


    Linki / Download / Mirror / Pobierz:
    Linki widoczne tylko dla zarejestrowanych użytkowników.
    Spoiler:
    Video
    ID : 1
    Format : AVC
    Format/Info : Advanced Video Codec
    Format profile : High@L4.1
    Format settings, CABAC : Yes
    Format settings, ReFrames : 4 frames
    Codec ID : V_MPEG4/ISO/AVC
    Duration : 1h 38mn
    Bit rate : 13.2 Mbps
    Width : 1 920 pixels
    Height : 1 080 pixels
    Display aspect ratio : 16:9
    Frame rate mode : Constant
    Frame rate : 23.976 fps
    Color space : YUV
    Chroma subsampling : 4:2:0
    Bit depth : 8 bits
    Scan type : Progressive
    Bits/(Pixel*Frame) : 0.266
    Stream size : 8.89 GiB (85%)
    Writing library : x264 core 132 r2310 76a5c3a
    Encoding settings : cabac=1 / ref=4 / deblock=1:-2:-2 / analyse=0x3:0x113 / me=tesa / subme=10 / psy=1 / psy_rd=0.90:0.00 / mixed_ref=1 / me_range=28 / chroma_me=1 / trellis=2 / 8x8dct=1 / cqm=0 / deadzone=21,11 / fast_pskip=0 / chroma_qp_offset=-2 / threads=12 / lookahead_threads=2 / sliced_threads=0 / nr=0 / decimate=0 / interlaced=0 / bluray_compat=0 / constrained_intra=0 / bframes=7 / b_pyramid=2 / b_adapt=2 / b_bias=0 / direct=3 / weightb=1 / open_gop=0 / weightp=2 / keyint=250 / keyint_min=23 / scenecut=40 / intra_refresh=0 / rc_lookahead=40 / rc=2pass / mbtree=0 / bitrate=13200 / ratetol=1.0 / qcomp=0.60 / qpmin=10 / qpmax=69 / qpstep=4 / cplxblur=20.0 / qblur=0.5 / vbv_maxrate=40000 / vbv_bufsize=30000 / nal_hrd=none / frame-packing=4 / ip_ratio=1.30 / pb_ratio=1.15 / aq=1:0.70
    Language : English
    Default : Yes
    Forced : No

    Audio #1
    ID : 2
    Format : AC-3
    Format/Info : Audio Coding 3
    Mode extension : CM (complete main)
    Format settings, Endianness : Big
    Codec ID : A_AC3
    Duration : 1h 38mn
    Bit rate mode : Constant
    Bit rate : 448 Kbps
    Channel(s) : 6 channels
    Channel positions : Front: L C R, Side: L R, LFE
    Sampling rate : 48.0 KHz
    Bit depth : 16 bits
    Compression mode : Lossy
    Stream size : 316 MiB (3%)
    Language : Polish
    Default : Yes
    Forced : No

    Audio #2
    ID : 3
    Format : DTS
    Format/Info : Digital Theater Systems
    Codec ID : A_DTS
    Duration : 1h 38mn
    Bit rate mode : Constant
    Bit rate : 1 510 Kbps
    Channel(s) : 6 channels
    Channel positions : Front: L C R, Side: L R, LFE
    Sampling rate : 48.0 KHz
    Bit depth : 24 bits
    Compression mode : Lossy
    Stream size : 1.04 GiB (10%)
    Language : English
    Default : No
    Forced : No

    Text
    ID : 4
    Format : PGS
    Muxing mode : zlib
    Codec ID : S_HDMV/PGS
    Codec ID/Info : The same subtitle format used on BDs/HD-DVDs
    Language : English
    Default : No
    Forced : No


    Linki / Download / Mirror / Pobierz:
    Linki widoczne tylko dla zarejestrowanych użytkowników.

    Linki / Download / Mirror / Pobierz:
    Linki widoczne tylko dla zarejestrowanych użytkowników.

  9. #29
    Użytkownik Array
    Dołączył
    Nov 2013
    Posty
    4,578
    Podziękował/a
    0
    Otrzymał/a podziękowań 12
    Siła reputacji
    461

    Domyślnie

    Krudowie / The Croods (2013) MULTi.1080p.BluRay.Half-OU.x264.DTS.AC3-LLO / Dubbing PL

    Spoiler:
    Format : Matroska
    Format version : Version 2
    File size : 10.4 GiB
    Duration : 1h 38mn
    Overall bit rate : 15.2 Mbps
    Movie name : LLO
    Encoded date : UTC 2013-10-03 1122
    Writing application : mkvmerge v5.7.0 ('The Whirlwind') built on Jul 8 2012 20:08:51
    Writing library : libebml v1.2.3 + libmatroska v1.3.0

    Video
    ID : 1
    Format : AVC
    Format/Info : Advanced Video Codec
    Format profile : High@L4.1
    Format settings, CABAC : Yes
    Format settings, ReFrames : 4 frames
    Codec ID : V_MPEG4/ISO/AVC
    Duration : 1h 38mn
    Bit rate : 13.2 Mbps
    Width : 1 920 pixels
    Height : 1 080 pixels
    Display aspect ratio : 16:9
    Frame rate mode : Constant
    Frame rate : 23.976 fps
    Color space : YUV
    Chroma subsampling : 4:2:0
    Bit depth : 8 bits
    Scan type : Progressive
    Bits/(Pixel*Frame) : 0.266
    Stream size : 8.89 GiB (85%)
    Writing library : x264 core 132 r2310 76a5c3a
    Encoding settings : cabac=1 / ref=4 / deblock=1:-2:-2 / analyse=0x3:0x113 / me=tesa / subme=10 / psy=1 / psy_rd=0.90:0.00 / mixed_ref=1 / me_range=28 / chroma_me=1 / trellis=2 / 8x8dct=1 / cqm=0 / deadzone=21,11 / fast_pskip=0 / chroma_qp_offset=-2 / threads=12 / lookahead_threads=2 / sliced_threads=0 / nr=0 / decimate=0 / interlaced=0 / bluray_compat=0 / constrained_intra=0 / bframes=7 / b_pyramid=2 / b_adapt=2 / b_bias=0 / direct=3 / weightb=1 / open_gop=0 / weightp=2 / keyint=250 / keyint_min=23 / scenecut=40 / intra_refresh=0 / rc_lookahead=40 / rc=2pass / mbtree=0 / bitrate=13200 / ratetol=1.0 / qcomp=0.60 / qpmin=10 / qpmax=69 / qpstep=4 / cplxblur=20.0 / qblur=0.5 / vbv_maxrate=40000 / vbv_bufsize=30000 / nal_hrd=none / frame-packing=4 / ip_ratio=1.30 / pb_ratio=1.15 / aq=1:0.70
    Language : English
    Default : Yes
    Forced : No

    Audio #1
    ID : 2
    Format : AC-3
    Format/Info : Audio Coding 3
    Mode extension : CM (complete main)
    Format settings, Endianness : Big
    Codec ID : A_AC3
    Duration : 1h 38mn
    Bit rate mode : Constant
    Bit rate : 448 Kbps
    Channel(s) : 6 channels
    Channel positions : Front: L C R, Side: L R, LFE
    Sampling rate : 48.0 KHz
    Bit depth : 16 bits
    Compression mode : Lossy
    Stream size : 316 MiB (3%)
    Language : Polish
    Default : Yes
    Forced : No

    Audio #2
    ID : 3
    Format : DTS
    Format/Info : Digital Theater Systems
    Codec ID : A_DTS
    Duration : 1h 38mn
    Bit rate mode : Constant
    Bit rate : 1 510 Kbps
    Channel(s) : 6 channels
    Channel positions : Front: L C R, Side: L R, LFE
    Sampling rate : 48.0 KHz
    Bit depth : 24 bits
    Compression mode : Lossy
    Stream size : 1.04 GiB (10%)
    Language : English
    Default : No
    Forced : No

    Text
    ID : 4
    Format : PGS
    Muxing mode : zlib
    Codec ID : S_HDMV/PGS
    Codec ID/Info : The same subtitle format used on BDs/HD-DVDs
    Language : English
    Default : No
    Forced : No





    Linki / Download / Mirror / Pobierz:
    Linki widoczne tylko dla zarejestrowanych użytkowników.
    Linki / Download / Mirror / Pobierz:
    Linki widoczne tylko dla zarejestrowanych użytkowników.

  10. #30
    Użytkownik Array Awatar Vanisz
    Dołączył
    Sep 2013
    Posty
    2,152
    Podziękował/a
    0
    Otrzymał/a podziękowań 62
    Siła reputacji
    219

    Domyślnie

    Krudowie / The Croods (2013) PLDUB.720p.BluRay.x264.AC3-LLO / Dubbing PL


    Spoiler:



    Spoiler:
    gatunek: Animacja, Familijny, Komedia, Przygodowy
    produkcja: USA
    premiera: 5 kwietnia 2013 (Polska) 15 lutego 2013 (swiat)
    rezyseria: Chris Sanders, Kirk De Micco
    scenariusz: Chris Sanders, John Cleese, Kirk De Micco

    Opis:

    Linki / Download / Mirror / Pobierz:
    Linki widoczne tylko dla zarejestrowanych użytkowników.



    Dane Techniczne:

    Linki / Download / Mirror / Pobierz:
    Linki widoczne tylko dla zarejestrowanych użytkowników.

    Opis Uploadu:

    Linki / Download / Mirror / Pobierz:
    Linki widoczne tylko dla zarejestrowanych użytkowników.

    Spoiler:



    W jednym pliku bez wypakowywania

    Linki / Download / Mirror / Pobierz:
    Linki widoczne tylko dla zarejestrowanych użytkowników.

    Download:

    Linki / Download / Mirror / Pobierz:
    Linki widoczne tylko dla zarejestrowanych użytkowników.
    Linki / Download / Mirror / Pobierz:
    Linki widoczne tylko dla zarejestrowanych użytkowników.
    Linki / Download / Mirror / Pobierz:
    Linki widoczne tylko dla zarejestrowanych użytkowników.
    Linki / Download / Mirror / Pobierz:
    Linki widoczne tylko dla zarejestrowanych użytkowników.

Strona 3 z 4 PierwszyPierwszy 1234 OstatniOstatni

Podobne wątki

  1. Krudowie / The Croods (2013)
    Przez markus22 w dziale BAJKI
    Odpowiedzi: 47
    Ostatni post / autor: 13-08-2016, 11:31

Uprawnienia umieszczania postów

  • Nie możesz zakładać nowych tematów
  • Nie możesz pisać wiadomości
  • Nie możesz dodawać załączników
  • Nie możesz edytować swoich postów
  •  
statystyka Page Rank Check